<?xml version="1.0" standalone="no"?>
<!DOCTYPE svg PUBLIC "-//W3C//DTD SVG 1.1//EN" "http://www.w3.org/Graphics/SVG/1.1/DTD/svg11.dtd" >
<svg>
<metadata>
Created by FontForge 20090914 at Thu Dec  8 18:14:53 2016
 By www-data
Copyright (c) 2005 by !Exclamachine. All rights reserved.
</metadata>
<defs>
<font id="!PaulMaul" horiz-adv-x="1041" >
  <font-face 
    font-family="!PaulMaul"
    font-weight="400"
    font-style="italic"
    font-stretch="normal"
    units-per-em="2048"
    panose-1="2 0 6 0 0 0 0 0 0 0"
    ascent="1638"
    descent="-410"
    x-height="755.997"
    cap-height="1236"
    bbox="-7 -739.999 1655 1811"
    underline-thickness="150"
    underline-position="-142"
    slope="-10"
    unicode-range="U+0020-U+00FF"
  />
<missing-glyph horiz-adv-x="25" 
 />
    <glyph glyph-name=".notdef" horiz-adv-x="25" 
 />
    <glyph glyph-name="space" unicode=" " horiz-adv-x="706" 
 />
    <glyph glyph-name="space" unicode="&#xa0;" horiz-adv-x="706" 
 />
    <glyph glyph-name="exclam" unicode="!" horiz-adv-x="152" 
d="M0 1139c4 18.667 11.332 32.834 21.999 42.501s22.334 14.834 35.001 15.501h1c12.667 0 24.667 -4.33301 36 -13s19.666 -22 24.999 -40c-1.33301 -18.667 -3.16602 -41.334 -5.49902 -68.001l-7 -81.5c-2.33301 -27.667 -4.33301 -53.667 -6 -78s-2.5 -43.5 -2.5 -57.5
c0 -52 0.5 -96.667 1.5 -134s2.83301 -72.833 5.5 -106.5s5.83398 -68.167 9.50098 -103.5l12.5 -124c-1.33301 -22 -7.66602 -38.667 -18.999 -50s-24 -17.166 -38 -17.499s-27.167 4.66699 -39.5 15s-19.833 26.166 -22.5 47.499l8.5 91.5l6.5 71
c2 21.667 3.5 42.334 4.5 62.001s1.66699 41.167 2 64.5s0.166016 49.333 -0.500977 78s-1.66699 63 -3 103c0 5.33301 -0.5 14.666 -1.5 27.999s-2.33301 28.666 -4 45.999l-5.5 56l-6 59l-5.5 53.5c-1.66699 16.333 -2.83398 29.833 -3.50098 40.5zM-0.000976562 114
c4 18.667 11.3311 32.834 21.998 42.501s22.334 14.667 35.001 15s24.834 -3.83398 36.501 -12.501s20.167 -22 25.5 -40v-16c-1.33301 -22 -7.66602 -38.667 -18.999 -50s-24 -17 -38 -17l-1 -1c-14 0 -26.667 5.33301 -38 16c-12.667 10 -20.334 25.667 -23.001 47v16z
" />
    <glyph glyph-name="quotedbl" unicode="&#x22;" horiz-adv-x="498" 
d="M148 774c-1.33301 -22 -7.66699 -38.667 -19 -50s-24 -17 -38 -17l-1 -1c-14 0 -26.667 5.33301 -38 16c-12.667 10 -20.334 25.667 -23.001 47c3.33301 25.333 6.16602 59.833 8.49902 103.5s3.33301 68.5 3 74.5s-1.16602 12.5 -2.49902 19.5s-3 17.167 -5 30.5
c-2.66699 20 -7 40 -13 60s-11 40 -15 60c-3.33301 17.333 -5 34.333 -5 51v9c0.666992 19.333 6.33398 38 17.001 56c16.667 13.333 33 19.833 49 19.5s28.833 -5.33301 38.5 -15s15.167 -22.334 16.5 -38.001s-4.33398 -31.834 -17.001 -48.501
c-3.33301 -23.333 -5.66602 -46.666 -6.99902 -69.999s-1.33301 -46.666 0 -69.999c1.33301 -20 6.5 -49.667 15.5 -89s16.167 -68.833 21.5 -88.5s10 -39.5 14 -59.5zM472.999 791c-1.33301 -22 -7.66895 -38.666 -19.002 -49.999s-24 -17.166 -38 -17.499
s-27.167 4.66699 -39.5 15s-19.833 26.166 -22.5 47.499c3.33301 25.333 5.5 50.5 6.5 75.5s2.5 50.167 4.5 75.5c0 2.66699 0.166992 2.33398 0.5 -0.999023s0.5 -4.83301 0.5 -4.5v12c0 7.66699 -0.166992 14.5 -0.5 20.5s-1.16602 12.5 -2.49902 19.5s-3 17.167 -5 30.5
c-2.66699 20 -7 40 -13 60s-11 40 -15 60s-5.66699 39.833 -5 59.5s6.33398 38.5 17.001 56.5c16 13.333 32 20 48 20h1c16 -0.666992 28.833 -5.83398 38.5 -15.501s15.167 -22.334 16.5 -38.001s-4.33398 -31.834 -17.001 -48.501
c-3.33301 -23.333 -5.66602 -46.666 -6.99902 -69.999s-1.33301 -46.666 0 -69.999c1.33301 -20 4 -39.833 8 -59.5s8.5 -39.334 13.5 -59.001l15.5 -59c5.33301 -19.667 10 -39.5 14 -59.5z" />
    <glyph glyph-name="numbersign" unicode="#" horiz-adv-x="904" 
d="M760 811c-22 -2 -44.333 -3.66309 -67 -4.99609c22.667 66 47.667 130.667 75 194l83 190c0.666992 18.667 -3 34.167 -11 46.5s-18 20.5 -30 24.5c-4.66699 1.33301 -9.66699 2 -15 2c-7.33301 0 -15 -1.66699 -23 -5c-14 -6 -25.667 -17 -35 -33
c-21.333 -70.667 -41.5 -141.167 -60.5 -211.5l-55.5 -211.5c-30 -1.33301 -59.5 -2 -88.5 -2s-57.833 1.66699 -86.5 5c-16.667 1.33301 -33 3.16602 -49 5.49902s-32.333 5.16602 -49 8.49902c15.333 54 31.833 107.333 49.5 160l52.5 158
c0.666992 18.667 -3 34.167 -11 46.5s-18 20.333 -30 24s-24.833 2.66699 -38.5 -3s-25.167 -16.5 -34.5 -32.5l-32.5 -169l-30.5 -169c-33.333 8 -66.333 16.5 -99 25.5l-98 27.5c-18.667 -0.666992 -33.667 -5.66699 -45 -15s-18.333 -20.166 -21 -32.499
s-0.666992 -25 6 -38s18.667 -23.5 36 -31.5c34.667 -3.33301 69.167 -5.83301 103.5 -7.5s69.166 -3.16699 104.499 -4.5l-16 -97.5c-5.33301 -32.333 -12 -64.5 -20 -96.5l-16 -64l-16 -64h-37c2.66699 0 3 0.333008 1 1c-14.667 2 -29.167 3.16699 -43.5 3.5
s-29.166 0.833008 -44.499 1.5c-22 -1.33301 -38.667 -7.66602 -50 -18.999s-17 -24 -17 -38l-1 -1c-0 -14 5.33301 -26.667 16 -38c10 -12.667 25.667 -20.334 47 -23.001c17.333 2 34.666 4.66699 51.999 8l52 10l-38.5 -152
c-12.333 -50.667 -23.166 -101.334 -32.499 -152.001c2.66699 -18.667 9 -33.334 19 -44.001s21.333 -16.667 34 -18h6c10 0 20.333 3 31 9c12 7.33301 21.333 20 28 38c1.33301 36.667 4.66602 73.167 9.99902 109.5s10.333 72.5 15 108.5c2 16 4.5 34.333 7.5 55l9.5 64
c31.333 6.66699 62.5 12.667 93.5 18s62.5 9.33301 94.5 12c12.667 1.33301 25.334 2 38.001 2s25.667 -0.333008 39 -1c-13.333 -58.667 -25 -117 -35 -175s-18 -117.333 -24 -178c2.66699 -21.333 10.334 -37 23.001 -47c11.333 -10 24 -15 38 -15h1
c14 0 26.667 5.66699 38 17s17.666 28 18.999 50c-0.666992 57.333 0 114.333 2 171s6.33301 113.334 13 170.001c15.333 -2 30.166 -4.16699 44.499 -6.5s29.166 -5.16602 44.499 -8.49902c2.66699 -0.666992 3 -0.833984 1 -0.500977s-4.66699 0.833008 -8 1.5
s-7.16602 1.33398 -11.499 2.00098s-7.83301 1 -10.5 1c-1.33301 0 -0.333008 -0.166992 3 -0.5s5.66602 -0.833008 6.99902 -1.5c2.66699 -0.666992 5.16699 -1.33398 7.5 -2.00098s4.83301 -1.33398 7.5 -2.00098c6 -1.33301 12.167 -2.33301 18.5 -3
s12.166 -1.66699 17.499 -3c10 -2 20 -3.83301 30 -5.5s20 -2.33398 30 -2.00098s19.667 1.83301 29 4.5s18 7.66699 26 15c12.667 16 19 31.5 19 46.5s-4 27.5 -12 37.5s-19 16.5 -33 19.5s-29 0.166992 -45 -8.5l-37.5 -2c-13 -0.666992 -20.167 -1 -21.5 -1
c-16 0 -32 0.166992 -48 0.5s-31.667 0.5 -47 0.5c4 25.333 8.33301 50.833 13 76.5s10.334 51.167 17.001 76.5c8 32.667 17 65.667 27 99l78.5 -10c26.333 -3.33301 52.5 -6.33301 78.5 -9c18.667 4 32.834 11.333 42.501 22s14.834 22.334 15.501 35.001v1
c0 12.667 -4.33301 24.667 -13 36s-22 19.666 -40 24.999zM305.5 655.004c7.66699 32.667 15.834 65.668 24.501 99.001l56.5 -4c18.333 -1.33301 37.166 -3 56.499 -5c26.667 -2.66699 53.167 -5.66699 79.5 -9l79.5 -10l-12 -45.5c-4 -15 -7.66699 -30.167 -11 -45.5
l-21 -86.5l-21 -85.5c-4.66699 -0.666992 -9 -1.16699 -13 -1.5s-8.33301 -0.833008 -13 -1.5c-81.333 -10 -162.666 -17 -243.999 -21c3.33301 23.333 6.66602 45.166 9.99902 65.499s6.33301 37.5 9 51.5c5.33301 33.333 11.833 66.333 19.5 99z" />
    <glyph glyph-name="dollar" unicode="$" horiz-adv-x="864" 
d="M474 1352c19.333 -14 30.1611 -29.5039 32.4941 -46.5039s-1.16699 -31.5 -10.5 -43.5c-0.666992 -7.33301 -1.16699 -14.5 -1.5 -21.5s-0.833008 -14.167 -1.5 -21.5c36 -2.66699 71.167 -9.5 105.5 -20.5s67.833 -27.5 100.5 -49.5
c11.333 -15.333 16.833 -30.166 16.5 -44.499s-4.5 -26.333 -12.5 -36s-19.167 -15.834 -33.5 -18.501s-31.666 0.833008 -51.999 10.5s-31.666 15.334 -33.999 17.001s-1.83301 3.16699 1.5 4.5h1c-5.33301 2.66699 -10.5 4.83398 -15.5 6.50098
s-8.16699 2.83398 -9.5 3.50098c-22.667 8.66699 -47.667 15 -75 19c-4.66699 -82 -8 -163.5 -10 -244.5s-1 -162.5 3 -244.5c0 -5.33301 0.166992 -10.5 0.5 -15.5s0.833008 -10.167 1.5 -15.5c41.333 -28 82.166 -57.167 122.499 -87.5s77 -62 110 -95
s60.667 -67.667 83 -104s35.833 -74.166 40.5 -113.499c1.33301 -8.66699 2 -17 2 -25c0 -27.333 -6 -50.666 -18 -69.999c-15.333 -26 -36.166 -46.833 -62.499 -62.5s-55.666 -27.167 -87.999 -34.5s-63.166 -11.333 -92.499 -12h-28
c1.33301 -11.333 2.83301 -22.5 4.5 -33.5s3.16699 -22.167 4.5 -33.5c-1.33301 -22 -7.66602 -38.667 -18.999 -50s-24 -17 -38 -17h-1c-14 0 -26.667 5 -38 15c-12.667 10 -20.334 25.667 -23.001 47c-0.666992 14 -1.16699 28.167 -1.5 42.5s-0.833008 28.5 -1.5 42.5
c-53.333 10 -104.666 25.5 -153.999 46.5s-98 45.5 -146 73.5c-21.333 12.667 -39.666 29.167 -54.999 49.5s-31.666 39.166 -48.999 56.499c-8 17.333 -10.667 33.166 -8 47.499s8.83398 25.5 18.501 33.5s21.667 12.167 36 12.5s29.166 -5.16699 44.499 -16.5
c14 -15.333 27.333 -31.333 40 -48s26.667 -31.667 42 -45c32 -26.667 67.5 -49.167 106.5 -67.5s79.5 -32.833 121.5 -43.5c-1.33301 76.667 -3 152.667 -5 228s-4.66699 151.333 -8 228l-118 73c-38.667 23.333 -73 46.666 -103 69.999
c-14 10.667 -32.667 26.334 -56 47.001s-46 43.334 -68 68.001s-40.667 50 -56 76c-13.333 21.333 -20 41 -20 59c0 3.33301 0.333008 6.33301 1 9c2 13.333 3.66699 26.666 5 39.999s4.66602 26 9.99902 38c5.33301 14 13.5 27.167 24.5 39.5s23.333 23.833 37 34.5
s27.834 20 42.501 28s28.667 14.667 42 20c36 13.333 72.333 25.333 109 36s74 18.334 112 23.001c-0.666992 14.667 -1.16699 29 -1.5 43s-0.5 28.333 -0.5 43c3.33301 15.333 8.33301 27 15 35s17.334 14.667 32.001 20c5.33301 2 10.666 3 15.999 3h8
c7.33301 -2 14.666 -4.66699 21.999 -8zM244.995 753.996c22.667 -19.333 48.668 -39 78.001 -59l94 -62c-4.66699 80.667 -9.83398 161 -15.501 241s-10.5 160.333 -14.5 241c-34.667 -2 -68.834 -7.16699 -102.501 -15.5s-65.834 -18.833 -96.501 -31.5
c-10 -4 -21.333 -9.33301 -34 -16s-24.5 -14.5 -35.5 -23.5s-19.833 -19.333 -26.5 -31s-9 -24.834 -7 -39.501c2.66699 -20.667 9.83398 -40.667 21.501 -60s25.334 -37.666 41.001 -54.999s32.167 -33.5 49.5 -48.5zM757.996 182.996
c-6 34.667 -17.332 67.334 -33.999 98.001s-37.334 59.5 -62.001 86.5s-52 52.5 -82 76.5s-61.333 47 -94 69c5.33301 -72.667 12.5 -144.834 21.5 -216.501l28.5 -216.5c7.33301 -0.666992 14.333 -1.16699 21 -1.5s13.667 -0.5 21 -0.5c14 -0.666992 32.167 0 54.5 2
s43.5 6.5 63.5 13.5s36.333 17.667 49 32s17 33.5 13 57.5z" />
    <glyph glyph-name="percent" unicode="%" horiz-adv-x="1446" 
d="M966 511c19.333 18.667 39.999 34.9971 61.999 48.9971s45.667 24.667 71 32c2 8.66699 6.33301 16.5 13 23.5s14.5 12 23.5 15s19 3.5 30 1.5s22.167 -7 33.5 -15c30 -27.333 56.833 -56.666 80.5 -87.999s45.167 -65 64.5 -101
c10.667 -19.333 21.834 -40.833 33.501 -64.5s19.167 -47.167 22.5 -70.5c2 -12.667 4.5 -25.5 7.5 -38.5s5.83301 -26 8.5 -39s4.33398 -25.833 5.00098 -38.5v-8c0 -10.667 -1 -21 -3 -31c-6.66699 -33.333 -20.5 -60.666 -41.5 -81.999s-45.667 -37.166 -74 -47.499
s-58.5 -15.166 -90.5 -14.499s-62 6.66699 -90 18c-20 8.66699 -40.667 16.5 -62 23.5s-41 16.833 -59 29.5c-17.333 12 -34.333 26 -51 42s-31.667 33.333 -45 52s-23.833 38.667 -31.5 60s-11.167 43.666 -10.5 66.999c1.33301 24.667 6.33301 48.667 15 72
s16.667 46.666 24 69.999c5.33301 15.333 14.666 30.333 27.999 45s25.333 27.334 36 38.001zM417.999 1133c3.33301 -12.667 4.00195 -25.002 2.00195 -37.002c17.333 -24 32.5 -48.167 45.5 -72.5s22.833 -52.5 29.5 -84.5l10 -46.5
c3.33301 -15.667 5.66602 -31.834 6.99902 -48.501c2 -21.333 2 -44.666 0 -69.999s-7 -50.166 -15 -74.499s-19.333 -46.333 -34 -66s-34 -33.834 -58 -42.501c-14.667 -5.33301 -29.834 -8.5 -45.501 -9.5s-31.5 -2.16699 -47.5 -3.5
c-16.667 -1.33301 -36.167 1.16699 -58.5 7.5s-45.333 15.833 -69 28.5s-47 27.667 -70 45s-43.333 36 -61 56s-31.5 40.667 -41.5 62c-8 16 -12 32.333 -12 49c0 4 0.333008 8.33301 1 13c4.66699 40.667 10.167 74.834 16.5 102.501s15.166 53 26.499 76s26 45.5 44 67.5
s41 47.667 69 77c16.667 17.333 32 30.666 46 39.999s28.167 16 42.5 20s29.5 6 45.5 6h55c11.333 -3.33301 19.833 -7.16602 25.5 -11.499s11.834 -11.166 18.501 -20.499l14 -31.5zM1122 1274c12 -8.66699 20.6768 -18.3311 26.0098 -28.998s7.66602 -21 6.99902 -31
s-3.83398 -19.333 -9.50098 -28s-13.834 -15 -24.501 -19c-17.333 -14.667 -34.166 -31.5 -50.499 -50.5s-31.833 -38.5 -46.5 -58.5l-42.5 -60.5c-13.667 -20.333 -26.834 -38.833 -39.501 -55.5l-51.5 -70l-51.5 -70c-72.667 -101.333 -141.5 -203.666 -206.5 -306.999
s-123.167 -212.333 -174.5 -327c-10.667 -24 -20.834 -48.333 -30.501 -73l-28.5 -75c-10 -29.333 -18.333 -58.666 -25 -87.999s-15.334 -59 -26.001 -89c6 -20.667 5.33301 -38.334 -2 -53.001s-17.333 -24.334 -30 -29.001c-6.66699 -2.66699 -13.334 -4 -20.001 -4
c-7.33301 0 -15 1.66699 -23 5c-15.333 5.33301 -27.666 18 -36.999 38c-4.66699 16 -4.83398 36.167 -0.500977 60.5s11.166 50.166 20.499 77.499s20.333 55.166 33 83.499s25.167 54.833 37.5 79.5s23.666 46.167 33.999 64.5s17.5 31.5 21.5 39.5
c60 111.333 123.833 219.5 191.5 324.5l201.5 317.5l46.5 74.5l46.5 73.5l39 66.5l41.5 71c14.333 23.667 29.666 46.5 45.999 68.5s33.5 41.667 51.5 59c12.667 10 24 16.333 34 19c3.33301 0.666992 7 1 11 1c8 0 17 -1.66699 27 -5
c1.33301 0 2.16602 -0.166992 2.49902 -0.5s0.833008 -0.5 1.5 -0.5zM1306.01 293.998c-20 36 -41.002 70.168 -63.002 102.501s-47.333 63.166 -76 92.499c-7.33301 -4 -15.666 -7 -24.999 -9c-23.333 -1.33301 -46.166 -8.16602 -68.499 -20.499
s-42.333 -27.833 -60 -46.5s-32.334 -39.667 -44.001 -63s-18.5 -46.333 -20.5 -69c-2 -26 2.83301 -50.167 14.5 -72.5s27.334 -42.5 47.001 -60.5s41.167 -33.5 64.5 -46.5s45.333 -22.5 66 -28.5c16 -4.66699 35.167 -8 57.5 -10s44 -0.666992 65 4s39 13.5 54 26.5
s22.833 32.167 23.5 57.5c0.666992 21.333 -2 42.333 -8 63l-18 61c-1.33301 5.33301 -3.33301 10.666 -6 15.999l-8 16l5 -11.5c1.33301 -3 1.33301 -3.5 0 -1.5zM298.009 1063c-9.33301 20 -11.332 38.665 -5.99902 55.998c-12.667 0.666992 -24.667 -2.33301 -36 -9
s-22 -13.667 -32 -21c-22.667 -16 -45.834 -37.167 -69.501 -63.5s-43 -55 -58 -86s-23.167 -62.667 -24.5 -95s9.66699 -62.833 33 -91.5c12 -14.667 27.833 -29 47.5 -43s40.834 -26.167 63.501 -36.5s45.667 -17.666 69 -21.999s44.833 -4 64.5 1s36.167 15.333 49.5 31
s21.666 38.834 24.999 69.501c2.66699 32 1.33398 61.833 -3.99902 89.5s-14 54 -26 79s-26.333 49.167 -43 72.5s-34.334 46.333 -53.001 69z" />
    <glyph glyph-name="ampersand" unicode="&#x26;" horiz-adv-x="1090" 
d="M462 881c-2 14.667 -1.00098 27.1631 2.99902 37.4961s9.66699 18.833 17 25.5c6 27.333 4.66699 48.833 -4 64.5s-21.667 25.834 -39 30.501s-37.666 4.16699 -60.999 -1.5s-46.666 -16.167 -69.999 -31.5l-28.5 -21c-9.66699 -7.33301 -19.167 -15.333 -28.5 -24
l84.5 -125l84.5 -125c25.333 11.333 48.333 16.666 69 15.999c8.66699 -2.66699 15.167 -6 19.5 -10s7.5 -10.667 9.5 -20c1.33301 -14.667 -2.33398 -27.334 -11.001 -38.001s-20 -19.667 -34 -27l70.5 -103.5l71.5 -102.5
c4.66699 -7.33301 9.33398 -14.166 14.001 -20.499l15 -19.5c63.333 48.667 121.166 103 173.499 163s100.5 125.333 144.5 196c14.667 12 29.334 18.333 44.001 19s27 -2.5 37 -9.5s17 -17.5 21 -31.5c0.666992 -4.66699 1 -10 1 -16c0 -10 -2 -20.667 -6 -32
c-42 -60.667 -86.333 -117.834 -133 -171.501s-100 -103.167 -160 -148.5l-33.5 -25c-11 -8 -22.167 -15.667 -33.5 -23l33 -48.5l33 -48.5l21.5 -33l21.5 -33c0 2.66699 1.66699 1.66699 5 -3l8 -11c8 -8 13.667 -13.833 17 -17.5s6.16602 -6.66699 8.49902 -9
s5.33301 -5.16602 9 -8.49902l17.5 -16c-0.666992 0 -1 -0.333008 -1 -1c1.33301 -1.33301 2.5 -2.66602 3.5 -3.99902s2.16699 -2.66602 3.5 -3.99902s2 -2.33301 2 -3c5.33301 -18 5.66602 -34 0.999023 -48s-12.334 -24 -23.001 -30
c-8.66699 -4.66699 -18.334 -7 -29.001 -7h-9c-14.667 2 -29 9.66699 -43 23c-30 35.333 -55.167 72.5 -75.5 111.5l-64.5 119.5c-5.33301 8 -9.66602 15.667 -12.999 23l-44 -25c-14.667 -8 -29.667 -15.667 -45 -23l-50.5 -24
c-13.667 -6.66699 -25.834 -12.334 -36.501 -17.001s-20.667 -8.66699 -30 -12s-19.5 -6.66602 -30.5 -9.99902l-38 -11l-51.5 -14c-10 -2.66699 -23.167 -5 -39.5 -7s-34 -2.83301 -53 -2.5s-38 2 -57 5s-36.333 8 -52 15s-28.5 16.333 -38.5 28s-15.333 26.5 -16 44.5
c-0.666992 13.333 -2 27 -4 41s-0.333008 27 5 39c8 18 15.5 36.333 22.5 55s16.167 35.667 27.5 51l28 36l38 47.5l46 54c16.667 19 34 37.5 52 55.5c-28 -0.666992 -54.833 1.5 -80.5 6.5s-48.167 14.5 -67.5 28.5s-34.5 32.833 -45.5 56.5s-15.833 53.834 -14.5 90.501
c0.666992 15.333 3.33398 31.5 8.00098 48.5s10.667 34 18 51s15.666 33.667 24.999 50s19 31.5 29 45.5l-60.5 68.5l-60.5 67.5c-6 13.333 -9 25.333 -9 36c0 4 0.333008 8 1 12c2.66699 14 8.83398 25 18.501 33s21.834 12.333 36.501 13h1c14 0 28.333 -5.66699 43 -17
l96 -135c24 23.333 51.167 45 81.5 65s60.5 33 90.5 39c19.333 4 38.5 5 57.5 3s38.167 -3.66699 57.5 -5c10.667 -0.666992 20.167 -4.16699 28.5 -10.5l23.5 -17.5c19.333 -13.333 34.5 -32 45.5 -56s17.667 -49.5 20 -76.5s0.333008 -53.667 -6 -80
s-17.5 -47.833 -33.5 -64.5c-19.333 -11.333 -37.5 -14.666 -54.5 -9.99902s-30.5 17.667 -40.5 39c-1.33301 6.66699 -2.66602 11.667 -3.99902 15zM432.999 577.996c-3.33301 5.33301 -6.99805 10.502 -10.998 15.502s-7.66699 10.167 -11 15.5c-13.333 -4 -26 -7 -38 -9
l-25 -20l-23.5 -18.5l-17.5 -14c-4.66699 -3.66699 -7.33398 -5.83398 -8.00098 -6.50098c-11.333 -10.667 -24.5 -24 -39.5 -40s-30.167 -33.5 -45.5 -52.5s-30.166 -38.833 -44.499 -59.5s-26.333 -41.167 -36 -61.5s-16.5 -39.833 -20.5 -58.5s-3.33301 -35 2 -49
c4 -12.667 12.667 -21.334 26 -26.001s28.833 -7 46.5 -7s36.5 2 56.5 6s39.167 8.5 57.5 13.5s34.666 10 48.999 15s24.5 8.83301 30.5 11.5c71.333 30 137.666 65.333 198.999 106l-71.5 121c-24.333 40 -49.5 79.333 -75.5 118zM362.001 675.998l-84.499 109.501
l-87.5 106.5c-14.667 -19.333 -26.834 -40 -36.501 -62s-16.167 -44.333 -19.5 -67c-1.33301 -10 -0.5 -20 2.5 -30s5.16699 -20 6.5 -30c8 -6 15.5 -12.833 22.5 -20.5s15.167 -12.834 24.5 -15.501c28 -6 55.167 -8.5 81.5 -7.5s52.833 4.16699 79.5 9.5h1
c2 1.33301 3.83301 2.5 5.5 3.5s3.16699 2.16699 4.5 3.5z" />
    <glyph glyph-name="quotesingle" unicode="'" horiz-adv-x="157" 
d="M5 1196c4 21.333 12.6631 36.668 25.9961 46.001c11.333 8 23 12 35 12h6c14 -2 26.333 -9.16699 37 -21.5s15.334 -29.5 14.001 -51.5l-21.5 -82.5c-8.33301 -31 -15.166 -62.833 -20.499 -95.5s-7.16602 -64.334 -5.49902 -95.001s9.5 -57.334 23.5 -80.001
c4 -6.66699 8.5 -12.667 13.5 -18l15.5 -17c2.66699 -9.33301 4 -18 4 -26s-1 -15 -3 -21c-5.33301 -14 -13.333 -24.333 -24 -31c-8.66699 -4.66699 -18 -7 -28 -7c-3.33301 0 -6.66602 0.333008 -9.99902 1c-14.667 2 -28.667 9.66699 -42 23
c-3.33301 9.33301 -7.5 18.333 -12.5 27s-8.16699 17.667 -9.5 27c-2 16 -3 31.667 -3 47c-0 16 1.33301 32.333 4 49c4.66699 30.667 8 62.334 10 95.001c2.66699 36 2.66699 72.5 0 109.5s-5.66699 73.5 -9 109.5z" />
    <glyph glyph-name="parenleft" unicode="(" horiz-adv-x="462" 
d="M314 1250c15.333 13.333 30.6641 20.002 45.9971 20.002h4c16 -1.33301 28.833 -6.83301 38.5 -16.5s15 -22.667 16 -39s-5.5 -32.833 -19.5 -49.5l-66 -69c-22.667 -22.667 -43.667 -47 -63 -73c-49.333 -66.667 -91 -138.5 -125 -215.5s-57.5 -156 -70.5 -237
s-14.667 -162.667 -5 -245s33.5 -162.166 71.5 -239.499c14 -28 27.333 -52.333 40 -73s25.334 -39.167 38.001 -55.5s26 -31.333 40 -45s29 -27.5 45 -41.5l52.5 -44.5l63.5 -54.5c11.333 -14.667 17 -29 17 -43v-1c-0.666992 -14.667 -5 -26.834 -13 -36.501
s-19 -15.834 -33 -18.501c-4 -0.666992 -8 -1 -12 -1c-10.667 0 -22.667 3 -36 9l-79 81l-49.5 50c-13 13.333 -23.667 25.5 -32 36.5s-17.166 24.167 -26.499 39.5s-20.5 35 -33.5 59l-52.5 96c-16 28.667 -28.667 61.167 -38 97.5s-16.5 73.5 -21.5 111.5
s-8.16699 76 -9.5 114c-0.666992 18.667 -1 36.667 -1 54s0.333008 33.666 1 48.999c2 50.667 7.16699 103.5 15.5 158.5s20.333 109.667 36 164s34.834 106.5 57.501 156.5s49 95.333 79 136l62 83z" />
    <glyph glyph-name="parenright" unicode=")" horiz-adv-x="583" 
d="M43 1153c-17.333 8 -29.3379 18.6689 -36.0049 32.002c-4.66699 8.66699 -7 17.667 -7 27c0 3.33301 0.333008 7 1 11c2.66699 12 9.66699 22.667 21 32s26.333 14.333 45 15c0.666992 0 3 -0.5 7 -1.5l12.5 -3l12.5 -3c4 -1 6.33301 -1.83301 7 -2.5
c14.667 -6 30.667 -16.667 48 -32s35 -33.166 53 -53.499l54 -64c18 -22.333 34.667 -44 50 -65l41 -56.5l27 -37c24.667 -32.667 46.834 -69.167 66.501 -109.5s36.834 -83.166 51.501 -128.499s26.667 -91.833 36 -139.5s16 -95.5 20 -143.5
c3.33301 -38.667 5 -76.334 5 -113.001v-27c-1.33301 -46 -5 -89.333 -11 -130c-5.33301 -32 -12.666 -63.5 -21.999 -94.5s-18 -62.5 -26 -94.5c-10 -38 -23.167 -73.167 -39.5 -105.5s-34.5 -63.333 -54.5 -93s-41.333 -58.834 -64 -87.501l-68 -89
c-14 -8 -27.333 -12 -40 -12h-6c-14.667 1.33301 -26.5 6.5 -35.5 15.5s-14.333 20.667 -16 35s2.5 29.833 12.5 46.5l71 76c24 24.667 46 51 66 79c54.667 76 96.334 159.667 125.001 251s42.667 183.666 42 276.999c0 76 -9.66699 148.333 -29 217s-46 134 -80 196
s-73.833 120.667 -119.5 176s-95.167 108 -148.5 158c0 -0.666992 -0.333008 -0.666992 -1 0c-7.33301 3.33301 -13.666 7 -18.999 11l-15.5 12c-5 4 -10.333 7.66699 -16 11s-12.5 5.66602 -20.5 6.99902z" />
    <glyph glyph-name="asterisk" unicode="*" horiz-adv-x="685" 
d="M37 1019c-9.33301 20 -11.6689 37.666 -7.00195 52.999s13 26.5 25 33.5s26 9 42 6s30.333 -13.5 43 -31.5c8 -23.333 20.167 -45.5 36.5 -66.5s35.166 -40.833 56.499 -59.5c-4.66699 28 -8.66699 55.5 -12 82.5s-5.33301 55.167 -6 84.5c0 16 0.5 32 1.5 48
s3.83301 31 8.5 45s11.5 26.5 20.5 37.5s21.167 19.833 36.5 26.5h4c16 0 29.333 -3 40 -9c11.333 -7.33301 19.333 -16.333 24 -27s5.5 -22.167 2.5 -34.5s-10.167 -23.5 -21.5 -33.5c-5.33301 -12 -9.16602 -24.333 -11.499 -37s-6.5 -24.667 -12.5 -36
c-4.66699 -40 -6.66699 -75.333 -6 -106c25.333 23.333 51.5 44 78.5 62s61.167 33.667 102.5 47c22 1.33301 39.167 -3.33398 51.5 -14.001s19.333 -23 21 -37s-2.16602 -27.667 -11.499 -41s-24.666 -22 -45.999 -26c-36.667 -2.66699 -70.5 -10.5 -101.5 -23.5
s-60.167 -30.167 -87.5 -51.5c0 -3.33301 0.666992 -7.66602 2 -12.999c26 -16 53 -30.833 81 -44.5s55.667 -26.167 83 -37.5s54 -21.666 80 -30.999l72 -25c15.333 -11.333 25.333 -23.666 30 -36.999c2.66699 -7.33301 4 -14 4 -20c0 -6.66699 -1.33301 -13 -4 -19
c-4.66699 -12 -13.334 -21.5 -26.001 -28.5s-28.334 -9.5 -47.001 -7.5c-43.333 25.333 -85.166 51.833 -125.499 79.5l-123.5 81.5c4.66699 -15.333 10.667 -32.666 18 -51.999l1 -1c12 -22 23 -44.667 33 -68s20.667 -46.333 32 -69c6 -20.667 5.33301 -38.334 -2 -53.001
s-17.333 -24.334 -30 -29.001c-6.66699 -2.66699 -13.334 -4 -20.001 -4c-7.33301 0 -15 1.66699 -23 5c-15.333 5.33301 -27.666 18 -36.999 38c-12 46.667 -22.167 93.5 -30.5 140.5l-24.5 141.5c-28.667 -30.667 -54.5 -64.167 -77.5 -100.5s-44.167 -72.5 -63.5 -108.5
c-13.333 -16.667 -28 -26 -44 -28s-29.833 1.16699 -41.5 9.5s-19.167 20.5 -22.5 36.5c-1.33301 4 -2 8 -2 12c0 12.667 4.33301 26 13 40c28 31.333 56.833 60.833 86.5 88.5l90.5 83.5c-30 16.667 -58.167 34.667 -84.5 54s-49.166 44 -68.499 74zM365.997 717.999
c-0.666992 0.666992 -1.66699 3 -3 7c0.666992 -2 1.66699 -4.33301 3 -7z" />
    <glyph glyph-name="plus" unicode="+" horiz-adv-x="1138" 
d="M606 1165l4.99512 -0.00390625c14 0 26 -2.66699 36 -8c10.667 -6 18.834 -13.667 24.501 -23s8 -19.666 7 -30.999s-5.5 -22 -13.5 -32c0 -54 -1.83301 -107.167 -5.5 -159.5s-3.5 -105.5 0.5 -159.5c1.33301 -19.333 3 -38.5 5 -57.5l6 -57.5
c33.333 4.66699 66.166 9.5 98.499 14.5l99.5 15.5c4 0.666992 9.5 1.5 16.5 2.5l21.5 3l21.5 3c7 1 12.5 1.83301 16.5 2.5c4.66699 0.666992 12.334 1.16699 23.001 1.5s19.834 0.833008 27.501 1.5s11.334 1 11.001 1s-8.83301 -0.333008 -25.5 -1
c-1.33301 0 -0.666016 0.166992 2.00098 0.5s4.66699 0.5 6 0.5l21 4l21 4l7.5 2.5c3 1 3.83301 1.16699 2.5 0.5l-4 -2c16 4 30 3.5 42 -1.5s21 -12.5 27 -22.5c4.66699 -8 7 -17 7 -27v-8c-2 -14 -8.33301 -28 -19 -42c-12.667 -7.33301 -26.167 -12.333 -40.5 -15
s-29.166 -4 -44.499 -4s-30.666 0.5 -45.999 1.5s-30 1.5 -44 1.5c-25.333 0.666992 -50.666 0.333984 -75.999 -0.999023l-77 -4c-14.667 -1.33301 -29 -2.33301 -43 -3l-43 -2l22 -161c7.33301 -53.333 13.666 -107 18.999 -161
c-1.33301 -22 -7.66602 -38.667 -18.999 -50s-24 -17 -38 -17l-1 -1c-14 0 -26.667 5.33301 -38 16c-12.667 10 -20.334 25.667 -23.001 47c6.66699 108.667 7.66699 216 3 322c-91.333 -6 -181.833 -13.833 -271.5 -23.5s-179.834 -22.167 -270.501 -37.5
c-18.667 2.66699 -33.334 9 -44.001 19s-16.667 21.333 -18 34c-0.666992 2 -1 4 -1 6c0 10 3.33301 20.333 10 31c7.33301 12 20 21.333 38 28c56 2 111.333 3 166 3h166c14.667 0 29.334 0.166992 44.001 0.5s29.334 0.166016 44.001 -0.500977
c22.667 0.666992 45 1.83398 67 3.50098s44 3.83398 66 6.50098c-2.66699 36.667 -5.83398 73.334 -9.50098 110.001s-8.16699 74 -13.5 112c-2 17.333 -4.16699 34.5 -6.5 51.5s-4.5 34.167 -6.5 51.5s-3.83301 34.333 -5.5 51s-3.5 33.667 -5.5 51
c-1.33301 14 -2 26.5 -2 37.5s1.66699 20.833 5 29.5s8.83301 16.5 16.5 23.5s18.5 13.167 32.5 18.5z" />
    <glyph glyph-name="comma" unicode="," horiz-adv-x="266" 
d="M136 -361c-7.33301 -1.33301 -13.9932 -1.99414 -19.9932 -1.99414c-10.667 0 -20 2 -28 6c-13.333 6 -22.833 14.667 -28.5 26s-6.83398 24 -3.50098 38s12.333 27 27 39c14 4 24.667 11.667 32 23s13.166 24.166 17.499 38.499s8.16602 28.833 11.499 43.5s8 27 14 37
c0.666992 1.33301 0.666992 1.16602 0 -0.500977s-1.5 -4 -2.5 -7s-1.83301 -5.83301 -2.5 -8.5s-0.333984 -4 0.999023 -4c0.666992 0 1.83398 3.5 3.50098 10.5s3.16699 15.333 4.5 25s2.5 19.667 3.5 30s1.5 18.833 1.5 25.5c2 30.667 3.16699 60.5 3.5 89.5
s-2.5 57.833 -8.5 86.5c-2.66699 -6 -5.16699 -12 -7.5 -18s-4.5 -12 -6.5 -18c-14.667 -62 -23.667 -103.667 -27 -125c2 -8.66699 1.66699 -17.334 -1 -26.001s-7.33398 -16.334 -14.001 -23.001s-15.167 -11.834 -25.5 -15.501s-22.166 -4.5 -35.499 -2.5
c-0.666992 0.666992 -1.33398 1 -2.00098 1c-14.667 7.33301 -25 15.166 -31 23.499s-10 20.5 -12 36.5l13.5 44c5.66699 18 12.5 37.167 20.5 57.5s16.833 41 26.5 62s20.167 39.833 31.5 56.5s23.166 30.5 35.499 41.5s25.5 16.833 39.5 17.5h6c7.33301 0 13.333 -1 18 -3
c6 -2.66699 12 -8.33398 18 -17.001c9.33301 -24 15 -47.667 17 -71s3.66699 -47.666 5 -72.999c1.33301 -20 3.16602 -43.5 5.49902 -70.5s3.83301 -54.833 4.5 -83.5v-19c0 -22.667 -0.666992 -45.667 -2 -69c-2.66699 -30 -7.83398 -58 -15.501 -84
s-18.5 -49.333 -32.5 -70s-32.333 -36.667 -55 -48zM139.007 73.0059c-1.33301 -2 -2 -3.33203 -2 -3.99902s0.666992 0.666016 2 3.99902z" />
    <glyph glyph-name="hyphen" unicode="-" horiz-adv-x="559" 
d="M421 536c9.33301 -0.666992 15.999 -1.16797 19.999 -1.50098s9.66699 -0.5 17 -0.5c16 4 30 3.5 42 -1.5s21 -12.5 27 -22.5c4.66699 -8 7 -17.333 7 -28v-7c-1.33301 -14 -7.33301 -28 -18 -42c-8.66699 -3.33301 -15 -6.33301 -19 -9s-10.667 -4.66699 -20 -6
c-2.66699 -0.666992 -8.5 0.166016 -17.5 2.49902l-31.5 8.5c-12 3.33301 -24.833 7.16602 -38.5 11.499s-41.667 11.333 -84 21s-72.833 13.834 -91.5 12.501s-36 -5.16602 -52 -11.499s-29 -15.833 -39 -28.5c-5.33301 -7.33301 -9.83301 -14.666 -13.5 -21.999l-11.5 -22
c-14 -8.66699 -27.333 -13 -40 -13c-2 0 -4 0.333008 -6 1c-14.667 1.33301 -26.5 6.5 -35.5 15.5s-14.167 20.833 -15.5 35.5c-0.666992 2 -1 4 -1 6c0 12.667 4.33301 26 13 40l21.5 22.5c7 7.66699 15.167 13.5 24.5 17.5c21.333 10 43 17 65 21s44.333 6.33301 67 7h11
c19.333 0 38.333 -0.666992 57 -2c22.667 -2 45.334 -3 68.001 -3c15.333 0 31 -0.166992 47 -0.5s31.667 -0.833008 47 -1.5zM476.999 534.999c-2 0 -4.16699 -0.166992 -6.5 -0.5s-4.5 -0.5 -6.5 -0.5h2c2 0 4.83301 0.166992 8.5 0.5s4.5 0.5 2.5 0.5z" />
    <glyph glyph-name="period" unicode="." horiz-adv-x="199" 
d="M157 155c10 -14 15.333 -27.001 16 -39.001c0 -0.666992 0.166992 -1 0.5 -1s0.5 -0.333008 0.5 -1v-2c0 -1.33301 -0.166992 -2.5 -0.5 -3.5s-0.5 -2.16699 -0.5 -3.5c0 -3.33301 -0.666992 -7.66602 -2 -12.999c-2 -8 -5 -14.333 -9 -19
c-3.33301 -8 -9 -16.333 -17 -25c-10.667 -11.333 -22.5 -19.666 -35.5 -24.999s-27.167 -9.66602 -42.5 -12.999l-12 -2l-7 -1h-3l-7 2l-3 3l-8 5l-7 6c-5.33301 3.33301 -10 11.666 -14 24.999l-4 9l-2 21l3 12c2 15.333 7 30 15 44
c7.33301 13.333 17.666 24.666 30.999 33.999s29.333 14 48 14c4 0 8.83301 -1.16699 14.5 -3.5s11.334 -5 17.001 -8s11 -6 16 -9s9.16699 -5.16699 12.5 -6.5z" />
    <glyph glyph-name="slash" unicode="/" horiz-adv-x="607" 
d="M463 1292l3.00195 16c2 10.667 9.66699 20.667 23 30l10 7l20 6l11 -1l10 -2c7.33301 -0.666992 13.666 -4 18.999 -10l8 -9l8 -10c4.66699 -5.33301 7 -10.333 7 -15v-10l-1 -17l-10 -37c-6.66699 -24.667 -19.334 -60.334 -38.001 -107.001
c-18 -47.333 -37.5 -94 -58.5 -140l-64.5 -138l-64 -139c-43.333 -99.333 -83.833 -199.5 -121.5 -300.5s-72.834 -203.167 -105.501 -306.5c-8 -20 -19.333 -33.333 -34 -40c-10.667 -4 -21 -6.66699 -31 -8c-7.33301 0 -14 2 -20 6c-6.66699 2 -12.334 6.66699 -17.001 14
l-6 10l-6 11l-5 18l2 8l3 16l22 49c14.667 32.667 37.834 81.167 69.501 145.5l93.5 193.5l89.5 195c29 65.333 55.833 132 80.5 200c22 60.667 42.333 120.834 61 180.501s30.334 105.5 35.001 137.5z" />
    <glyph glyph-name="zero" unicode="0" horiz-adv-x="851" 
d="M390 1204c7.33301 2.66699 16.332 3.49609 26.999 2.49609s20.334 -2.16699 29.001 -3.5c-10 8 -20.333 15.667 -31 23s-21 15 -31 23c-15.333 15.333 -23.333 31.166 -24 47.499s3.66602 29.833 12.999 40.5s22 17 38 19h7c14 0 28.333 -5.33301 43 -16l53.5 -46
l52.5 -47c19.333 -18 38.333 -41.167 57 -69.5s36.167 -59.666 52.5 -93.999s31.666 -70.666 45.999 -108.999s27 -76.166 38 -113.499s20.5 -73.166 28.5 -107.499s14 -65.166 18 -92.499l16 -110c2 -15.333 3 -30.333 3 -45c0 -22 -2.33301 -43.667 -7 -65l-16.5 -90.5
c-5.66699 -30.333 -11.834 -60.5 -18.501 -90.5c-3.33301 -17.333 -10.166 -35.333 -20.499 -54s-23 -36.834 -38 -54.501s-31.667 -34.167 -50 -49.5s-37.5 -28.666 -57.5 -39.999s-40.333 -20 -61 -26c-16.667 -4.66699 -33 -7 -49 -7h-10
c-36.667 2.66699 -73.167 5.5 -109.5 8.5l-109.5 9.5c-3.33301 0.666992 -6.66602 1.16699 -9.99902 1.5s-6.66602 1.83301 -9.99902 4.5c-12.667 9.33301 -26 18.166 -40 26.499l-41.5 25.5c-13.667 8.66699 -26.5 18 -38.5 28s-22.667 21.667 -32 35
c-28.667 40.667 -51.5 87.834 -68.5 141.501s-28.167 108.834 -33.5 165.501c-3.33301 29.333 -5 58.333 -5 87c-0 27.333 1.33301 54.666 4 81.999c5.33301 55.333 16.333 105.333 33 150l72 189c6 14.667 13.5 28.5 22.5 41.5s18.833 25.5 29.5 37.5l32.5 35.5
c11 11.667 21.5 23.5 31.5 35.5c5.33301 5.33301 10 9 14 11s9.33301 4 16 6l67.5 28c22.333 9.33301 44.833 18 67.5 26zM740.999 450.996c1.33301 45.333 -1.50098 93.001 -8.50098 143.001s-17.333 100.333 -31 151s-30.667 100.5 -51 149.5s-43.166 95.5 -68.499 139.5
c-13.333 -6 -27.833 -6.33301 -43.5 -1s-28.5 18 -38.5 38c-1.33301 1.33301 -2.66602 2.5 -3.99902 3.5s-2.66602 1.83301 -3.99902 2.5c-4.66699 2 -10.5 4.33301 -17.5 7s-14.333 5 -22 7s-15.167 3.33301 -22.5 4s-14 0 -20 -2l-73.5 -22.5
c-19 -5.66699 -35.833 -13.334 -50.5 -23.001s-28.667 -22.667 -42 -39s-29.333 -39.5 -48 -69.5c-20.667 -34 -39.667 -75.667 -57 -125s-30.833 -101.833 -40.5 -157.5s-14.5 -112.334 -14.5 -170.001s7 -111.5 21 -161.5s35.833 -94.167 65.5 -132.5
s69.5 -66.166 119.5 -83.499c32 -11.333 65.333 -18 100 -20s69 -0.666992 103 4c45.333 6.66699 83.666 21.5 114.999 44.5s56.666 51.167 75.999 84.5s33.333 69.833 42 109.5s13.667 79.5 15 119.5z" />
    <glyph glyph-name="one" unicode="1" horiz-adv-x="256" 
d="M0 1144c4 18.667 11.332 32.832 21.999 42.499s22.334 14.834 35.001 15.501h1c12.667 0 24.667 -4.33301 36 -13s19.666 -22 24.999 -40c-5.33301 -120.667 -6.5 -239.667 -3.5 -357s15.167 -236 36.5 -356l24 -125.5l25 -125.5l8.5 -42
c3 -15.333 6.16699 -29.666 9.5 -42.999c0 -1.33301 0.666992 -4 2 -8c1.33301 -3.33301 2.66602 -6.33301 3.99902 -9l4 -8c0 -1.33301 0.166992 -2.16602 0.5 -2.49902s0.5 -0.833008 0.5 -1.5v-1c0.666992 -4.66699 1 -9 1 -13c0 -8.66699 -1.66699 -17 -5 -25
c-6 -11.333 -14.333 -19.333 -25 -24c-7.33301 -4 -15.666 -6 -24.999 -6c-4 0 -8 0.333008 -12 1c-14 2 -27.333 9.66699 -40 23c-6 8.66699 -10.833 20.5 -14.5 35.5s-6.66699 31.667 -9 50s-4.16602 37.5 -5.49902 57.5s-2.33301 39.5 -3 58.5s-1.16699 36.667 -1.5 53
s-0.833008 30.166 -1.5 41.499c-5.33301 52.667 -10 105 -14 157s-9.33301 104 -16 156l-32.5 254.5c-11 84.333 -19.833 169.166 -26.5 254.499z" />
    <glyph glyph-name="two" unicode="2" horiz-adv-x="918" 
d="M840 129c18 -5.33301 31.3311 -13.6689 39.998 -25.002s13 -23.333 13 -36v-1c-0.666992 -12.667 -5.83398 -24.334 -15.501 -35.001s-23.834 -18 -42.501 -22l-152 17c-51.333 6 -102.333 7.33301 -153 4c-36 -2 -71.5 -6.83301 -106.5 -14.5
s-70.167 -16.167 -105.5 -25.5l-1 -2c-13.333 -5.33301 -26.833 -10.166 -40.5 -14.499l-40.5 -13.5c-6.66699 -1.33301 -13 -2 -19 -2s-11.667 0.666992 -17 2c-10.667 2.66699 -19.5 7 -26.5 13s-12.333 13.167 -16 21.5s-4.83398 16.833 -3.50098 25.5
c-9.33301 11.333 -15 25.333 -17 42c0 4 0.333008 6.66699 1 8c6.66699 34.667 25.667 53.334 57 56.001l57.5 31.5c19 10.333 37.5 21.5 55.5 33.5c20.667 14.667 41.334 31.167 62.001 49.5s41 37.666 61 57.999s39 40.833 57 61.5s34.333 40.667 49 60
c24 31.333 47.667 65.833 71 103.5s44.333 77.167 63 118.5s34.334 83.666 47.001 126.999s20.334 86.666 23.001 129.999s-0.5 86 -9.5 128s-25.5 82 -49.5 120c-16 24.667 -33 42.334 -51 53.001s-36.667 15.834 -56 15.501s-39.166 -5.33301 -59.499 -15
s-40.5 -22.5 -60.5 -38.5c-39.333 -30.667 -75.666 -66.334 -108.999 -107.001s-64.333 -83.667 -93 -129s-55 -91.833 -79 -139.5s-45.667 -93.834 -65 -138.501c-12 -14.667 -25 -23.667 -39 -27s-26.667 -2.16602 -38 3.50098s-20 15.167 -26 28.5c-4 8 -6 17.333 -6 28
c0 6 0.666992 12.667 2 20c28.667 55.333 59 109.333 91 162s67 103.334 105 152.001l47 58.5c16 19 32.667 37.5 50 55.5l47 45c18 16.667 37.167 32.667 57.5 48s41 29 62 41s41.5 20 61.5 24c10 2 20 3 30 3c8 0 16.333 -0.666992 25 -2
c18 -2.66699 35.667 -4.66699 53 -6c8.66699 -0.666992 15.667 -4.33398 21 -11.001c8 -7.33301 16.333 -14.166 25 -20.499s17.167 -13 25.5 -20s16 -14.333 23 -22s12.167 -16.5 15.5 -26.5c9.33301 -23.333 18.166 -47 26.499 -71l24.5 -72
c4.66699 -12.667 7.83398 -26.5 9.50098 -41.5s2.5 -30 2.5 -45s-0.333008 -29.333 -1 -43s-1 -25.5 -1 -35.5c1.33301 -32 -1.5 -63.5 -8.5 -94.5s-16.5 -61.5 -28.5 -91.5c-10.667 -27.333 -20.834 -54.666 -30.501 -81.999s-21.167 -54.333 -34.5 -81
c-26 -53.333 -57.333 -106.833 -94 -160.5s-75 -102.5 -115 -146.5l-58.5 -62c-24.333 -25.333 -51.166 -49.666 -80.499 -72.999c28.667 1.33301 57 2.33301 85 3s56.333 2 85 4c53.333 4 106.5 9.83301 159.5 17.5s105.833 14.5 158.5 20.5z" />
    <glyph glyph-name="three" unicode="3" horiz-adv-x="676" 
d="M63 1073c-21.333 2.66699 -37 10.3369 -47 23.0039c-10.667 11.333 -16 24 -16 38l1 1c0 14 5.66699 26.667 17 38s28 17.666 50 18.999c23.333 -2.66699 46.166 -4.66699 68.499 -6s44.833 -4.33301 67.5 -9v-1c10 0 20.667 -0.166992 32 -0.5l32.5 -1
c10.333 -0.333008 19.333 -0.666016 27 -0.999023s12.834 -0.5 15.501 -0.5c42 3.33301 84.333 10.666 127 21.999s84 21.666 124 30.999h8c15.333 0 27.666 -3 36.999 -9c11.333 -8 19.333 -17.667 24 -29c11.333 -9.33301 18 -22.333 20 -39v-7
c0 -14.667 -6.33301 -30 -19 -46c-20 -16.667 -38.167 -35.834 -54.5 -57.501s-31.166 -44.834 -44.499 -69.501s-25.166 -50.167 -35.499 -76.5s-19.833 -52.833 -28.5 -79.5c26.667 -6.66699 51.667 -20.667 75 -42c20.667 -19.333 37.834 -41.5 51.501 -66.5
s25.167 -50.5 34.5 -76.5c11.333 -31.333 18 -61.666 20 -90.999c0.666992 -9.33301 1 -18.333 1 -27c0 -20.667 -1.66699 -41.334 -5 -62.001c-4.66699 -29.333 -11.667 -58.5 -21 -87.5s-19.666 -58.5 -30.999 -88.5c-8 -21.333 -17.833 -42.5 -29.5 -63.5
s-25.834 -40.167 -42.501 -57.5l-39.5 -39.5l-40.5 -39.5c-14 -13.333 -30.5 -23.666 -49.5 -30.999s-37.5 -15.333 -55.5 -24c-22 -11.333 -44 -17 -66 -17c-0.666992 0 -1 0.333008 -1 1c-22.667 0 -45 3.33301 -67 10s-43.333 15 -64 25s-41 19.333 -61 28
c-13.333 13.333 -21.166 27.166 -23.499 41.499s-0.166016 27 6.50098 38s16.834 19 30.501 24s29.5 4.83301 47.5 -0.5c16 -9.33301 31.5 -19.333 46.5 -30s31.167 -19 48.5 -25c26.667 -8.66699 52.834 -10.834 78.501 -6.50098s50.334 13.5 74.001 27.5
s45.667 31.5 66 52.5s38.666 43.5 54.999 67.5s30 48.5 41 73.5s18.833 48.5 23.5 70.5c3.33301 17.333 5.66602 34.5 6.99902 51.5s1 34.167 -1 51.5c-1.33301 17.333 -5.33301 37.5 -12 60.5s-15.834 45.333 -27.501 67s-25.834 40.334 -42.501 56.001
s-35.667 24.834 -57 27.501c-1.33301 -3.33301 -2.16602 -6.5 -2.49902 -9.5s-1.16602 -6.16699 -2.49902 -9.5c-10.667 -12.667 -21.834 -21.167 -33.501 -25.5s-22.834 -5.16602 -33.501 -2.49902c-10 -2 -19.5 -1.5 -28.5 1.5s-16.833 8 -23.5 15s-11.334 16 -14.001 27
s-2.66699 23.5 0 37.5c8 14.667 17.667 27 29 37s23.666 18 36.999 24l48.5 76c15.667 25.333 29.834 51.666 42.501 78.999c11.333 24.667 20.833 49.667 28.5 75s16.167 50.333 25.5 75l-97 4c-32.667 1.33301 -64.667 1 -96 -1
c-42.667 -3.33301 -85.334 -9.33301 -128.001 -18s-85.334 -16.334 -128.001 -23.001z" />
    <glyph glyph-name="four" unicode="4" horiz-adv-x="894" 
d="M514 751c4 18.667 11.332 32.833 21.999 42.5s22.334 14.667 35.001 15s24.834 -3.83398 36.501 -12.501s20.167 -22 25.5 -40c-3.33301 -30.667 -7 -61.5 -11 -92.5s-7.83301 -62.167 -11.5 -93.5s-6.83398 -62.666 -9.50098 -93.999s-3.66699 -62.333 -3 -93
c0 -30 2 -59.333 6 -88c32 3.33301 62.667 9 92 17s57 19.667 83 35c20.667 8 38.5 9 53.5 3s25.5 -15.333 31.5 -28c3.33301 -7.33301 5 -15.333 5 -24c0 -6 -0.666992 -12 -2 -18c-4.66699 -16 -16.334 -29.333 -35.001 -40c-39.333 -13.333 -76 -21 -110 -23
s-68.667 -2 -104 0c7.33301 -32.667 16 -65 26 -97s21 -64 33 -96c-0.666992 -18.667 -5.66699 -33.667 -15 -45s-20 -18.333 -32 -21c-4 -0.666992 -7.66699 -1 -11 -1c-9.33301 0 -18.333 2.33301 -27 7c-13.333 6.66699 -24 18.667 -32 36
c-7.33301 42 -12.166 80.667 -14.499 116s-4.16602 71 -5.49902 107c-11.333 1.33301 -22.666 2.16602 -33.999 2.49902s-23 0.833008 -35 1.5c-38 1.33301 -73.167 1.33301 -105.5 0s-63.833 -4.33301 -94.5 -9s-61.334 -11.5 -92.001 -20.5s-63 -20.833 -97 -35.5
c-18 -4 -33.333 -3.16699 -46 2.5s-22 13.834 -28 24.501c-5.33301 8 -8 17 -8 27v7c1.33301 12.667 7 24 17 34c-6.66699 10.667 -9.33398 22.167 -8.00098 34.5s6.66602 23.833 15.999 34.5c-0.666992 -1.33301 -1 -3.33301 -1 -6s-0.666992 -7 -2 -13
c0.666992 1.33301 1 2.33301 1 3s0.333008 1.66699 1 3c2 9.33301 4.16699 17.5 6.5 24.5s6.16602 14.167 11.499 21.5l129.5 184.5c43.667 60.333 84.5 122.833 122.5 187.5c40 66.667 77.167 134 111.5 202l105.5 204c14.667 12 29.334 18.333 44.001 19h4
c12.667 0 23.667 -3 33 -9c10 -7.33301 16.833 -18 20.5 -32s2.16699 -30 -4.5 -48l-84.5 -113.5l-83.5 -115c-27.333 -39 -53.666 -78.5 -78.999 -118.5s-49 -81 -71 -123l-75.5 -148.5l-75.5 -148.5l-3 -6c30.667 3.33301 62.5 4.83301 95.5 4.5s66.667 -1.33301 101 -3
l103.5 -5c34.667 -1.66699 69 -1.83398 103 -0.500977c-0.666992 14.667 -1 29.334 -1 44.001v46c-1.33301 62.667 -4.33301 124.667 -9 186s-9.66699 123 -15 185z" />
    <glyph glyph-name="five" unicode="5" horiz-adv-x="869" 
d="M827 1200c9.33301 -8.66699 14.9902 -20 16.9902 -34c-1.33301 -20 -5.33301 -33.667 -12 -41c-9.33301 -13.333 -19.333 -21 -30 -23l-16 -3l-29 1c-20 0 -49.833 1.16699 -89.5 3.5s-79.167 1.83301 -118.5 -1.5c-32 -2.66699 -63.667 -6.83398 -95 -12.501l-95 -17.5
c-10 -26 -20.833 -51.5 -32.5 -76.5s-22.5 -50.833 -32.5 -77.5c-8.66699 -23.333 -16 -46.833 -22 -70.5s-11.333 -47.5 -16 -71.5c20 7.33301 40.167 14.166 60.5 20.499s40.5 6.83301 60.5 1.5l69 -18.5c22.667 -6.33301 44.667 -14.5 66 -24.5
c24.667 -12 46.167 -26.167 64.5 -42.5s35 -34.333 50 -54s28.667 -40.167 41 -61.5l37.5 -65c6 -10 10.667 -20.833 14 -32.5s6 -23.5 8 -35.5s3.83301 -24 5.5 -36s3.5 -24 5.5 -36c2.66699 -11.333 3.5 -22.5 2.5 -33.5s-2.66699 -22 -5 -33s-5 -22.167 -8 -33.5
s-5.5 -22.666 -7.5 -33.999c-0.666992 -3.33301 -2 -6.5 -4 -9.5s-4.33301 -5.83301 -7 -8.5l-41.5 -52l-42.5 -52c-10 -12 -22.5 -22 -37.5 -30s-30.833 -14.833 -47.5 -20.5s-34 -10.334 -52 -14.001s-35 -6.83398 -51 -9.50098
c-31.333 -5.33301 -62.333 -8.66602 -93 -9.99902c-25.333 -1.33301 -50.333 -2 -75 -2c-6 0 -12 0.333008 -18 1c-31.333 0 -62.666 0.5 -93.999 1.5s-62.666 1.16699 -93.999 0.5c-21.333 2.66699 -37 10.334 -47 23.001c-10.667 11.333 -16 24 -16 38l1 1
c0 14 5.66699 26.667 17 38s28 17.666 50 18.999c30 -2 62.833 -5.5 98.5 -10.5s72.5 -9.16699 110.5 -12.5s75.833 -4.83301 113.5 -4.5s73.334 4.83301 107.001 13.5s64.334 22.5 92.001 41.5s50.167 45.833 67.5 80.5c14 27.333 20.667 56.666 20 87.999
s-6.66699 62.666 -18 93.999s-27 61.5 -47 90.5s-42.833 54.333 -68.5 76s-53.167 38.834 -82.5 51.501s-58.666 18.334 -87.999 17.001c-18 -1.33301 -35.167 -5.83301 -51.5 -13.5s-33.166 -14.167 -50.499 -19.5c-2 -1.33301 -6 -4.5 -12 -9.5s-9 -8.83301 -9 -11.5
l-1 -2c-6.66699 -18 -16.167 -30.833 -28.5 -38.5s-24.666 -10.667 -36.999 -9s-23.5 7.83398 -33.5 18.501s-16.333 25.334 -19 44.001c0 1.33301 0.333008 2.33301 1 3c-7.33301 14.667 -9 31.667 -5 51c16.667 38 35.334 75.333 56.001 112s38 74.667 52 114
c8 24 14.333 49.167 19 75.5s8.33398 52.166 11.001 77.499c-8 10 -12.167 21.167 -12.5 33.5s3.16699 23.5 10.5 33.5c4 16.667 10.833 29.334 20.5 38.001s20.167 13.667 31.5 15s22.333 -0.833984 33 -6.50098s19 -14.5 25 -26.5c21.333 -2 47 -4.66699 77 -8
s54.167 -5.66602 72.5 -6.99902s52 4 101 16s98.167 25.333 147.5 40l21 -2c14.667 -1.33301 26.334 -6.33301 35.001 -15z" />
    <glyph glyph-name="six" unicode="6" horiz-adv-x="605" 
d="M124 532c-2 12.667 -1.33496 24.334 1.99805 35.001v1c1.33301 3.33301 2.66602 6.16602 3.99902 8.49902s2.66602 4.83301 3.99902 7.5c8 16.667 15 32.167 21 46.5s16.667 30.166 32 47.499c31.333 34.667 64.5 58.334 99.5 71.001s69.333 15.667 103 9
s65 -22.334 94 -47.001s52.833 -57 71.5 -97c12 -26 19.667 -55.333 23 -88c1.33301 -14 2 -28.333 2 -43c0 -20 -1.33301 -40.667 -4 -62c-4.66699 -36.667 -12.834 -73.667 -24.501 -111s-26.5 -73 -44.5 -107s-38.667 -65.167 -62 -93.5s-49.166 -51.5 -77.499 -69.5
s-58.5 -30 -90.5 -36c-12 -2.66699 -24.333 -4 -37 -4c-20.667 0 -42 3.33301 -64 10c-41.333 12.667 -74 30.5 -98 53.5s-42 49.667 -54 80s-19.333 63.5 -22 99.5c-1.33301 20.667 -2 41.667 -2 63c0 16 0.333008 32 1 48c2 45.333 7.5 96.166 16.5 152.499
s20.5 112.833 34.5 169.5s30 111.167 48 163.5s37.333 97.166 58 134.499c14 25.333 27 51 39 77s26.667 50.667 44 74c12.667 16.667 27.167 31.334 43.5 44.001s32.166 25.667 47.499 39c10 8.66699 21 14.334 33 17.001c9.33301 2 19 3 29 3h8
c12 -0.666992 24.333 -2.16699 37 -4.5s25 -4.16602 37 -5.49902c18 -5.33301 31.333 -13.833 40 -25.5s12.834 -23.834 12.501 -36.501s-5.33301 -24.334 -15 -35.001s-23.834 -18 -42.501 -22l-38 6c-12.667 2 -25.667 3.66699 -39 5
c-11.333 -9.33301 -23.666 -18.333 -36.999 -27s-24.666 -19 -33.999 -31c-36 -44 -68.333 -94.833 -97 -152.5s-53.667 -118.167 -75 -181.5s-38.666 -126.833 -51.999 -190.5s-22.666 -123.5 -27.999 -179.5c-2.66699 -30 -4.16699 -59.333 -4.5 -88
s3.33398 -55.5 11.001 -80.5s20.5 -46.833 38.5 -65.5s44 -33 78 -43c22.667 -6 44.334 -6.66699 65.001 -2s40.334 12.834 59.001 24.501s35.667 25.667 51 42s28.666 32.833 39.999 49.5c19.333 28 35.5 58 48.5 90s22.167 64.833 27.5 98.5s6.83301 67.5 4.5 101.5
s-9.16602 67 -20.499 99c-6 17.333 -15 32.333 -27 45s-25.667 22 -41 28s-31.333 8.16699 -48 6.5s-32.667 -8.5 -48 -20.5c-7.33301 -5.33301 -13.333 -10.5 -18 -15.5s-8.83398 -10 -12.501 -15s-7.33398 -10.333 -11.001 -16l-13.5 -20.5
c0 -8 -1.83301 -16.667 -5.5 -26s-7.16699 -17.666 -10.5 -24.999c-8.66699 -10.667 -18.167 -18.167 -28.5 -22.5s-20.5 -5.83301 -30.5 -4.5s-19.333 5.5 -28 12.5s-16 16.5 -22 28.5c0 1.33301 -0.333008 2.33301 -1 3z" />
    <glyph glyph-name="seven" unicode="7" horiz-adv-x="754" 
d="M729 1105c-0.666992 -14.667 -3.83203 -26.835 -9.49902 -36.502s-12.834 -17.167 -21.501 -22.5c-34 -62 -64.333 -130.167 -91 -204.5s-48.167 -150.666 -64.5 -228.999s-26.666 -156.666 -30.999 -234.999s-1.16602 -152.5 9.50098 -222.5
c3.33301 -16 7.33301 -32 12 -48s9 -32 13 -48c-0.666992 -18.667 -5.66699 -33.667 -15 -45s-20 -18.333 -32 -21c-4 -0.666992 -7.66699 -1 -11 -1c-9.33301 0 -18.333 2.33301 -27 7c-13.333 6.66699 -24 18.667 -32 36c-2 19.333 -5 38.666 -9 57.999
s-5.66699 38.666 -5 57.999c2.66699 74 9.83398 145.667 21.501 215l37.5 213c4.66699 24.667 8.5 45.834 11.5 63.501s5.83301 33.5 8.5 47.5l7.5 39.5l7.5 39c2.66699 13.667 6 29.167 10 46.5l14 62l15.5 63.5c5 21 10.5 41.833 16.5 62.5l9.5 36.5
c3 11.667 6.16699 22.834 9.5 33.501c-14 0.666992 -27.833 1.16699 -41.5 1.5s-27.167 0.166016 -40.5 -0.500977c-42 -2 -80.5 -6.16699 -115.5 -12.5s-68.5 -15.5 -100.5 -27.5s-63.167 -27.333 -93.5 -46s-61.5 -41 -93.5 -67c-18.667 -11.333 -36 -15.166 -52 -11.499
s-28 11.5 -36 23.5c-7.33301 9.33301 -11 20 -11 32c0 2.66699 0.333008 5.66699 1 9c2 16 11.333 30.667 28 44c44 21.333 89 39.5 135 54.5s92.5 28.333 139.5 40s94.167 22.334 141.5 32.001s94.666 20.167 141.999 31.5c12 10 27.333 15.333 46 16
c3.33301 -0.666992 6.83301 -1 10.5 -1s7.16699 -0.666992 10.5 -2c12 -3.33301 21.833 -8.5 29.5 -15.5s13.167 -14.5 16.5 -22.5c7.33301 -4.66699 13.166 -10.334 17.499 -17.001s8.16602 -15 11.499 -25v-4z" />
    <glyph glyph-name="eight" unicode="8" horiz-adv-x="643" 
d="M26 1089l62.5 43.5c15.667 11 29 19.333 40 25s21.667 9.66699 32 12s23.5 4.16602 39.5 5.49902s36.833 2.83301 62.5 4.5s59.167 5.16699 100.5 10.5l-2 4c-9.33301 20 -11.666 37.667 -6.99902 53s13 26.666 25 33.999c8.66699 4.66699 18 7 28 7
c4.66699 0 9.33398 -0.333008 14.001 -1c16 -3.33301 30.333 -14 43 -32l43 -69.5c14.667 -23 28.667 -46.167 42 -69.5c3.33301 -5.33301 5.16602 -11.333 5.49902 -18s-0.166992 -13 -1.5 -19c-5.33301 -39.333 -11.333 -78 -18 -116c-1.33301 -6 -3.5 -11.167 -6.5 -15.5
l-10.5 -14.5l-45 -53.5c-10.667 -13 -19.5 -23.333 -26.5 -31s-13.167 -14 -18.5 -19s-12.5 -11 -21.5 -18l-36 -27l-61.5 -46.5c-2 -1.33301 -3.83301 -2.66602 -5.5 -3.99902s-3.5 -2.66602 -5.5 -3.99902l121 -117c40.667 -38 80 -77.333 118 -118
c12.667 -13.333 24.5 -27.833 35.5 -43.5s20.333 -32.167 28 -49.5s12.834 -35.333 15.501 -54c1.33301 -7.33301 2 -14.666 2 -21.999c0 -12 -1.33301 -23.667 -4 -35c-4.66699 -23.333 -13.834 -42.333 -27.501 -57s-29.5 -26.5 -47.5 -35.5s-37.333 -16.167 -58 -21.5
s-40.334 -10 -59.001 -14c-17.333 -3.33301 -37.333 -5 -60 -5c-8.66699 0 -17.334 0.333008 -26.001 1c-34 1.33301 -68 6.16602 -102 14.499s-65.167 20.333 -93.5 36s-48.5 35.5 -60.5 59.5c-6.66699 14 -14.834 27.667 -24.501 41s-18.667 26.833 -27 40.5
s-15.166 27.5 -20.499 41.5s-7 28.667 -5 44c3.33301 24 6.33301 48 9 72s8.33398 47.333 17.001 70c6 14.667 13.833 29.167 23.5 43.5s20.667 28.333 33 42s25.666 27 39.999 40l42.5 37.5l-35.5 34.5c-11 11 -21.167 21.833 -30.5 32.5l-52 59.5
c-17.333 20.333 -30 43.166 -38 68.499c-5.33301 18 -8.16602 36.333 -8.49902 55s-1.5 37.334 -3.5 56.001c2.66699 10.667 5.5 18.667 8.5 24s8.83301 11.333 17.5 18zM381 547l-68.4971 62l-80.5 72c-20 -15.333 -40 -31.833 -60 -49.5s-37.5 -36.5 -52.5 -56.5
s-26.333 -41.333 -34 -64s-9.5 -46.667 -5.5 -72c6.66699 -43.333 20.334 -79.666 41.001 -108.999s45.667 -52.5 75 -69.5s62.166 -28.5 98.499 -34.5s74.166 -7.33301 113.499 -4c16.667 1.33301 35.167 5.16602 55.5 11.499s38 15.166 53 26.499s25.667 25.333 32 42
s4.16602 36.334 -6.50098 59.001c-8 18 -18.333 35.5 -31 52.5s-26.334 33.333 -41.001 49s-29.667 30.5 -45 44.5zM440.003 1076c-1.33301 3.33301 -2.8291 6.83301 -4.49609 10.5s-3.5 7.16699 -5.5 10.5c-10 -12 -24.667 -20 -44 -24
c-36.667 -3.33301 -73.334 -5.16602 -110.001 -5.49902s-73 -4.16602 -109 -11.499c-12 -2.66699 -22.833 -8.16699 -32.5 -16.5s-19.834 -15.833 -30.501 -22.5c0.666992 -8.66699 0.5 -17.334 -0.5 -26.001s0.166992 -17 3.5 -25c9.33301 -19.333 20 -37.333 32 -54
s24.667 -33.334 38 -50.001l28.5 -33.5l29.5 -32.5c2 1.33301 5 4 9 8c9.33301 8 21.5 17.833 36.5 29.5s30.667 24.667 47 39s32.666 29.833 48.999 46.5s30.166 33.667 41.499 51s19.333 35 24 53s4 35.667 -2 53z" />
    <glyph glyph-name="nine" unicode="9" horiz-adv-x="668" 
d="M370 873c4 21.333 12.6719 36.6719 26.0049 46.0049s27 13.166 41 11.499s26.333 -8.66699 37 -21s15.334 -29.5 14.001 -51.5c-6 -26 -10.667 -48.667 -14 -68s-8 -37 -14 -53s-14.5 -31.667 -25.5 -47s-27.167 -32 -48.5 -50c-18 -16 -39 -27.333 -63 -34
s-49 -9.33398 -75 -8.00098s-51.667 6.16602 -77 14.499s-48.666 19.666 -69.999 33.999s-39.5 31.166 -54.5 50.499s-24.5 41 -28.5 65c-3.33301 21.333 -7.33301 42.333 -12 63c-4 17.333 -6 35.333 -6 54v8c1.33301 40 7.66602 78 18.999 114s26.833 68.5 46.5 97.5
s42.667 54 69 75s55.5 36.5 87.5 46.5c23.333 6.66699 48 10 74 10c8.66699 0 17.667 -0.333008 27 -1c36 -3.33301 73.333 -14.666 112 -33.999c22 -10.667 40 -21.167 54 -31.5s26.667 -21.333 38 -33s22.333 -24.667 33 -39l37 -49.5
c13.333 -16.667 23.333 -35.834 30 -57.501s11.334 -43.834 14.001 -66.501c1.33301 -14 2 -27.667 2 -41c0 -9.33301 -0.333008 -18.666 -1 -27.999c-2 -23.333 -5 -44.666 -9 -63.999c-9.33301 -49.333 -26 -99.5 -50 -150.5s-51.667 -100.667 -83 -149
s-64.833 -94.833 -100.5 -139.5s-69.834 -85.334 -102.501 -122.001l-70.5 -79l-70.5 -78c-14 -8.66699 -27.333 -13 -40 -13c-2 0 -4 0.333008 -6 1c-14.667 1.33301 -26.5 6.5 -35.5 15.5s-14.333 20.667 -16 35s2.5 29.833 12.5 46.5l75 74l74 74l103 109.5
c35.333 39 68.666 79.667 99.999 122s59 86.333 83 132s41.667 92.5 53 140.5c8 34 10.5 67.667 7.5 101s-11 64.833 -24 94.5s-30.833 56.5 -53.5 80.5s-50 44 -82 60c-36.667 18 -71.5 26.5 -104.5 25.5s-62.833 -9 -89.5 -24s-49.834 -35.667 -69.501 -62
s-34.834 -55.5 -45.501 -87.5s-15.834 -65.333 -15.501 -100s6.83301 -68 19.5 -100c8 -19.333 20.167 -36.5 36.5 -51.5s34.666 -26.333 54.999 -34s41.333 -10.5 63 -8.5s41.167 10.333 58.5 25c13.333 11.333 23.166 22.5 29.499 33.5s11 22.333 14 34s5 24.167 6 37.5
s2.83301 28.333 5.5 45z" />
    <glyph glyph-name="colon" unicode=":" horiz-adv-x="206" 
d="M116 181c0.666992 -0.666992 1.66699 -1.00195 3 -1.00195c8 0.666992 14.333 0.333984 19 -0.999023s10.334 -4.66602 17.001 -9.99902c3.33301 -4.66699 6.66602 -9 9.99902 -13s6 -8.66699 8 -14c2 -4 3.33301 -9 4 -15s1 -12 1 -18s-0.166992 -11.5 -0.5 -16.5
s-0.5 -8.5 -0.5 -10.5c-0.666992 -27.333 -10 -47.333 -28 -60c-15.333 -11.333 -32.666 -17 -51.999 -17h-9c-4.66699 -1.33301 -9 -2 -13 -2c-8.66699 0 -17 2.33301 -25 7c-12 6.66699 -21.667 17.667 -29 33c-11.333 14.667 -18 31.334 -20 50.001
c-0.666992 4 -1 8 -1 12c0 13.333 2.66699 26 8 38c6 14.667 16.167 26.167 30.5 34.5s32.833 10.166 55.5 5.49902c7.33301 -1.33301 12.166 -2 14.499 -2h7.5zM60 781.998c10 9.33301 21.001 15.001 33.001 17.001c4 0.666992 8 1 12 1c7.33301 0 14.666 -1 21.999 -3
c10.667 -4 20.167 -10.167 28.5 -18.5s14.166 -17.833 17.499 -28.5c5.33301 -11.333 8 -22 8 -32c0 -4 -0.333008 -7.66699 -1 -11c-2.66699 -12.667 -7.83398 -21.834 -15.501 -27.501s-16.5 -9.16699 -26.5 -10.5c-8 -7.33301 -17 -12 -27 -14s-19.5 -1.33301 -28.5 2
s-17.167 9 -24.5 17s-12.333 18.667 -15 32c-3.33301 11.333 -3.66602 21.333 -0.999023 30c-1.33301 7.33301 -0.666016 15 2.00098 23s8 15.667 16 23z" />
    <glyph glyph-name="semicolon" unicode=";" horiz-adv-x="348" 
d="M63 -321c-18.667 2.66699 -33.333 8.99609 -44 18.9961s-16.667 21.333 -18 34c-0.666992 2 -1 4.33301 -1 7c-0 10 3.33301 20 10 30c7.33301 12 20 21.333 38 28c16.667 2 28.167 3.83301 34.5 5.5s11.5 3.83398 15.5 6.50098s8.83301 5.66699 14.5 9
s16.5 7.33301 32.5 12h1c9.33301 6.66699 18.166 13.334 26.499 20.001s17.166 14.667 26.499 24l22 25c9.33301 10.667 16.333 20.667 21 30c4.66699 10.667 7.66699 17.667 9 21s2 9 2 17c0.666992 2.66699 0.833984 6.5 0.500977 11.5s-0.5 6.16699 -0.5 3.5
c-1.33301 7.33301 -2.66602 15.333 -3.99902 24s-3.66602 16 -6.99902 22c-4.66699 8 -12 14.667 -22 20c0.666992 -17.333 -3.16602 -34.166 -11.499 -50.499s-19.333 -29.5 -33 -39.5s-28.667 -15.833 -45 -17.5s-32.166 3.83301 -47.499 16.5
c-10 8.66699 -17.167 18.334 -21.5 29.001s-7.16602 22.667 -8.49902 36c-2 24.667 3.5 45 16.5 61s29.5 27.667 49.5 35s41.5 10.333 64.5 9s43.5 -6.66602 61.5 -15.999c17.333 -9.33301 31.166 -22.333 41.499 -39s18.166 -33.667 23.499 -51l11 -40
c1.33301 -7.33301 2 -14.333 2 -21s-0.666992 -13.334 -2 -20.001c-5.33301 -26 -14.5 -51.5 -27.5 -76.5s-28.833 -48.5 -47.5 -70.5s-39.334 -41.833 -62.001 -59.5s-46 -31.834 -70 -42.501c-8 -3.33301 -16.333 -5.66602 -25 -6.99902s-17.334 -3 -26.001 -5z
M90.001 697.996c-1.33301 11.333 -1 21.334 1 30.001s5.33301 16.334 10 23.001c5.33301 11.333 12.833 21.166 22.5 29.499s20.167 13.5 31.5 15.5c3.33301 2 6.83301 3.83301 10.5 5.5l12.5 5.5h5c16 0 29.667 -3.33301 41 -10c11.333 -7.33301 19 -16.5 23 -27.5
s4.33301 -22.667 1 -35s-10.666 -22.833 -21.999 -31.5c0.666992 0 0.5 -0.333008 -0.5 -1s-2.16699 -1.33398 -3.5 -2.00098c-2.66699 -1.33301 -4.33398 -2.33301 -5.00098 -3c-2 -8 -4.33301 -14 -7 -18c-10 -15.333 -20.5 -25 -31.5 -29s-21.833 -4.33301 -32.5 -1
s-21 9.5 -31 18.5s-18.333 19.167 -25 30.5zM225.001 711.997c2 2.66699 2.16797 3.50098 0.500977 2.50098s-3.83398 -2.83301 -6.50098 -5.5c0 -1.33301 -0.166992 -2.33301 -0.5 -3s-0.5 -1.33398 -0.5 -2.00098c2 1.33301 4.33301 4 7 8z" />
    <glyph glyph-name="less" unicode="&#x3c;" horiz-adv-x="990" 
d="M44 569c-15.333 7.33301 -26.332 16.665 -32.999 27.998c-7.33301 10 -11 20.333 -11 31c0 0.666992 0.333008 1.33398 1 2.00098c0 11.333 3.83301 21.833 11.5 31.5s18.5 16.5 32.5 20.5c19.333 22.667 41.333 41.834 66 57.501s50.5 29.834 77.5 42.501
s54.5 24.334 82.5 35.001s55 22.334 81 35.001c60.667 29.333 120.334 60 179.001 92s118.334 62 179.001 90h4c16.667 0 31 -3.66699 43 -11c12 -8 19.833 -18 23.5 -30s2.66699 -24.833 -3 -38.5s-16.5 -25.167 -32.5 -34.5c-80.667 -20 -159.834 -43.5 -237.501 -70.5
s-151.834 -63.167 -222.501 -108.5l-60.5 -40c-19.667 -13.333 -37.834 -28.666 -54.501 -45.999c59.333 -28 115.666 -59.333 168.999 -94l163 -104l224 -136.5c74.667 -44.333 148.667 -90.833 222 -139.5c11.333 -14.667 17 -29 17 -43v-1
c-0.666992 -14.667 -5 -26.834 -13 -36.501s-19 -15.834 -33 -18.501c-4 -0.666992 -8 -1 -12 -1c-10.667 0 -22.667 3 -36 9l-183.5 157.5c-63 52.333 -128.667 100.666 -197 144.999s-139.666 82.166 -213.999 113.499s-151.833 52.333 -232.5 63z" />
    <glyph glyph-name="equal" unicode="=" horiz-adv-x="1000" 
d="M922 538c18 -5.33301 31.335 -13.6631 40.002 -24.9961s13 -23.333 13 -36v-1c-0.666992 -12.667 -5.83398 -24.334 -15.501 -35.001s-23.834 -18 -42.501 -22l-204 18.5c-68 6.33301 -136.333 7.83301 -205 4.5c-66 -3.33301 -130.667 -12 -194 -26
s-125.666 -32 -186.999 -54c-6.66699 -1.33301 -13.334 -2 -20.001 -2c-12.667 0 -23.667 3 -33 9c-14 8 -23 18.667 -27 32s-2.5 27.166 4.5 41.499s20.5 25.5 40.5 33.5c49.333 8.66699 97.833 14.667 145.5 18s96.167 5.66602 145.5 6.99902
c21.333 0.666992 42.5 0.5 63.5 -0.5s42.167 -0.833008 63.5 0.5l206.5 19.5c68.333 6.33301 136.833 12.166 205.5 17.499zM63.002 716.003c-21.333 2.66699 -37 10.335 -47 23.002c-10.667 11.333 -16 24 -16 38l1 1c0 14 5.66699 26.667 17 38s28 17.666 50 18.999
c69.333 -7.33301 138 -13.5 206 -18.5s150.333 -3.5 247 4.5c3.33301 0.666992 10.833 2 22.5 4s38.667 6.16699 81 12.5s85.5 13.833 129.5 22.5h7c18.667 0 33.667 -4.66699 45 -14c12 -10.667 18.833 -23 20.5 -37s-2.16602 -27.667 -11.499 -41s-24.666 -22 -45.999 -26
c-58.667 1.33301 -117.667 3.66602 -177 6.99902s-118.333 4 -177 2s-117.334 -6.83301 -176.001 -14.5s-117.334 -14.5 -176.001 -20.5z" />
    <glyph glyph-name="greater" unicode="&#x3e;" horiz-adv-x="1043" 
d="M43 927c-17.333 8 -29.3281 18.667 -35.9951 32c-4.66699 8.66699 -7 17.667 -7 27c0 3.33301 0.333008 7 1 11c2.66699 12 9.66699 22.667 21 32s26.333 14.333 45 15c21.333 -4 42.833 -7.33301 64.5 -10s42.167 -8.33398 61.5 -17.001
c30 -12.667 58.833 -26.334 86.5 -41.001s54.667 -30 81 -46l79 -49.5l80.5 -51.5c37.333 -24 74.166 -46.5 110.499 -67.5s73 -40.833 110 -59.5s74.833 -36.334 113.5 -53.001s79 -32 121 -46c14.667 -10.667 24.667 -23 30 -37c8 -11.333 12.333 -22.666 13 -33.999v-2
c0 -11.333 -3 -21 -9 -29c-6 -9.33301 -14.833 -16.666 -26.5 -21.999s-25.5 -7 -41.5 -5c-9.33301 4.66699 -18.333 9.83398 -27 15.501s-18 9.5 -28 11.5c-10.667 2 -22.834 1.66699 -36.501 -1s-27.167 -6.5 -40.5 -11.5s-26.166 -10.167 -38.499 -15.5
s-22.166 -10 -29.499 -14c-32.667 -16 -63.5 -34.667 -92.5 -56s-57.167 -43.833 -84.5 -67.5l-81 -72.5c-26.667 -24.667 -54 -48.334 -82 -71.001c-11.333 -9.33301 -23.5 -17.5 -36.5 -24.5s-25.833 -14.833 -38.5 -23.5c-7.33301 -1.33301 -14 -2 -20 -2
c-10.667 0 -20 2 -28 6c-13.333 6 -22.833 14.667 -28.5 26s-6.83398 24 -3.50098 38s12.333 27 27 39c62 26 121 57.167 177 93.5s111 74.166 165 113.499c9.33301 6.66699 20.166 14.834 32.499 24.501l39.5 30l44.5 31.5c15.667 10.667 31.5 20.334 47.5 29.001
c-49.333 32.667 -98.333 67.334 -147 104.001s-98.334 71.167 -149.001 103.5s-103 61.166 -157 86.499s-111 43 -171 53c-18.667 3.33301 -37.334 5 -56.001 5s-37.334 0.666992 -56.001 2z" />
    <glyph glyph-name="question" unicode="?" horiz-adv-x="624" 
d="M113 1114c0 -1.33301 0.49707 -5.16699 1.49707 -11.5s2.5 -13.166 4.5 -20.499c12 -11.333 19.333 -23.333 22 -36s1.33398 -24.334 -3.99902 -35.001s-14.166 -19.167 -26.499 -25.5s-27.166 -8.5 -44.499 -6.5c-22.667 10.667 -38.834 25.834 -48.501 45.501
s-15.167 41.5 -16.5 65.5c-0.666992 5.33301 -1 11 -1 17c0 18 2 36 6 54c4.66699 23.333 10.667 44.333 18 63c6 15.333 15.667 29.5 29 42.5s26.666 23.5 39.999 31.5c22.667 13.333 49 20.333 79 21h3c29.333 0 60 -4.33301 92 -13
c32.667 -8.66699 65.667 -21.167 99 -37.5s64.333 -34.333 93 -54s54 -40.5 76 -62.5s38 -43 48 -63c10 -19.333 15.333 -38.333 16 -57v-6c0 -17.333 -2.33301 -34 -7 -50c-6 -18 -14.333 -35.5 -25 -52.5s-22.667 -32.833 -36 -47.5l-74 -80.5l-75 -80.5
c-24.667 -27.333 -48.167 -55.5 -70.5 -84.5s-42.5 -59.5 -60.5 -91.5c-4 -7.33301 -8.83301 -16.666 -14.5 -27.999s-10.834 -23.166 -15.501 -35.499s-8 -24.833 -10 -37.5s-1.33301 -24.334 2 -35.001c3.33301 -11.333 8.83301 -22 16.5 -32s14.5 -20.333 20.5 -31
c5.33301 -18 5.5 -33.833 0.5 -47.5s-13 -23.834 -24 -30.501s-23.667 -8.83398 -38 -6.50098s-28.166 10.166 -41.499 23.499c-0.666992 0.666992 -3.66699 5.5 -9 14.5s-11 19.5 -17 31.5s-11.333 24.167 -16 36.5s-6.66699 22.166 -6 29.499
c2 17.333 3.5 34.833 4.5 52.5s5.16699 34.167 12.5 49.5c26.667 54.667 58 104 94 148s75.667 87.667 119 131l42 41l42 40c9.33301 9.33301 21.833 20.666 37.5 33.999s30.667 27.833 45 43.5s25.833 32.334 34.5 50.001s10.667 35.167 6 52.5
c-4.66699 16 -14.167 32.167 -28.5 48.5s-31.666 31.833 -51.999 46.5s-42.666 28.334 -66.999 41.001s-48.666 23.5 -72.999 32.5s-47.5 15.667 -69.5 20s-40.667 5.83301 -56 4.5c-18 -1.33301 -31.667 -5.16602 -41 -11.499s-16.333 -14.5 -21 -24.5
s-7.83398 -21.5 -9.50098 -34.5zM325.997 150.999c0.666992 -2.66699 2.33398 -6.66797 5.00098 -12.001l6 -6c2 -2 3.66699 -4.33301 5 -7c10.667 -2 19.5 -6.33301 26.5 -13s11.833 -14.667 14.5 -24s2.66699 -19.666 0 -30.999s-8.33398 -22.666 -17.001 -33.999
c-10 -4.66699 -19.333 -8.83398 -28 -12.501s-17.334 -6.16699 -26.001 -7.5c-8 -4.66699 -15.167 -8.33398 -21.5 -11.001s-12.833 -4.66699 -19.5 -6c-4.66699 -0.666992 -9.33398 -1 -14.001 -1h-7c-8 0.666992 -17.333 2 -28 4
c-12.667 2.66699 -22.5 8.83398 -29.5 18.501s-11.667 21.167 -14 34.5s-2.66602 27.5 -0.999023 42.5s4.83398 29.5 9.50098 43.5s10.667 26.5 18 37.5s15.333 19.167 24 24.5c7.33301 4.66699 15 7.16699 23 7.5s16.333 0.833008 25 1.5c14.667 -4 25.5 -9.5 32.5 -16.5
s12.5 -17.833 16.5 -32.5z" />
    <glyph glyph-name="at" unicode="@" horiz-adv-x="1599" 
d="M641 249c-9.33301 -2 -17.8262 -2.67188 -25.4932 -2.00488s-14.834 2.33398 -21.501 5.00098l-101.5 -128l-104.5 -126c-16.667 -10 -32.167 -14.167 -46.5 -12.5s-26 7 -35 16s-14.333 20.667 -16 35s2.5 29.833 12.5 46.5l217 203
c70.667 69.333 134.334 145 191.001 227c2 3.33301 6.5 10 13.5 20l24 35l28 42l26.5 41.5l20 33.5c5.33301 9.33301 8 15.666 8 18.999c0 2 -0.666992 1.83301 -2 -0.5s-2.66602 -5.16602 -3.99902 -8.49902l-3.5 -9c-1 -2.66699 -1.5 -3 -1.5 -1
c2.66699 11.333 7.5 22.833 14.5 34.5s13.167 22.5 18.5 32.5c12 22.667 24 42.334 36 59.001s27.667 30.667 47 42c0.666992 0.666992 1.66699 2.33398 3 5.00098c12 9.33301 23.833 15.166 35.5 17.499s22.334 1.83301 32.001 -1.5s17.667 -9 24 -17
s10.166 -18 11.499 -30c4 -12 3.16699 -24.667 -2.5 -38s-16.167 -24.666 -31.5 -33.999l-15 -19.5c-4.66699 -6.33301 -9.33398 -13.166 -14.001 -20.499c-22 -34 -38.5 -70.5 -49.5 -109.5s-18.5 -79.833 -22.5 -122.5c27.333 18 54 36.5 80 55.5s53 36.5 81 52.5
c20.667 8 38.5 9 53.5 3s25.5 -15.333 31.5 -28s6.83301 -26.834 2.5 -42.501s-15.833 -28.834 -34.5 -39.501c-37.333 -10 -74.166 -21.5 -110.499 -34.5s-71.833 -28.167 -106.5 -45.5c-0.666992 -41.333 0.666016 -82.5 3.99902 -123.5s7.33301 -81.167 12 -120.5
c28 3.33301 55.5 7.33301 82.5 12s53.167 12.667 78.5 24c49.333 20.667 88.166 47.834 116.499 81.501s48.333 71.334 60 113.001s16 85.5 13 131.5s-11.333 91.5 -25 136.5s-31.667 87.833 -54 128.5s-46.833 76.334 -73.5 107.001c-58 66.667 -121.833 116 -191.5 148
s-140.834 47.833 -213.501 47.5s-144.834 -15.833 -216.501 -46.5s-138.834 -75.334 -201.501 -134.001c-51.333 -47.333 -93.5 -99.666 -126.5 -156.999s-58.167 -119.666 -75.5 -186.999c-16.667 -64 -25.334 -130.167 -26.001 -198.5s7.33301 -134.833 24 -199.5
c8.66699 -32 19.167 -63.5 31.5 -94.5s27.166 -61.167 44.499 -90.5c16.667 -28.667 35.167 -56 55.5 -82s42.5 -50.333 66.5 -73c42.667 -39.333 88.834 -73.166 138.501 -101.499s102.834 -48.5 159.501 -60.5c58.667 -12.667 119.167 -17.834 181.5 -15.501
s123.666 11.166 183.999 26.499s118.5 36.333 174.5 63s107.667 58.334 155 95.001c27.333 20.667 48.833 38.667 64.5 54s29.5 30.666 41.5 45.999s24 32.5 36 51.5s27.667 42.5 47 70.5c14.667 12 29.334 18.333 44.001 19s27 -2.5 37 -9.5s17 -17.5 21 -31.5
c0.666992 -4.66699 1 -10 1 -16c0 -10 -2 -20.667 -6 -32l-51 -72.5c-14 -20.333 -28.333 -39.166 -43 -56.499s-31.167 -34.5 -49.5 -51.5s-41.833 -35.833 -70.5 -56.5c-44.667 -32 -92 -60.5 -142 -85.5s-101.667 -45.667 -155 -62s-107.666 -28.166 -162.999 -35.499
c-44 -5.33301 -87.667 -8 -131 -8h-35c-27.333 1.33301 -54.833 3 -82.5 5s-54.167 7.66699 -79.5 17l-75.5 26.5c-19.667 7 -36.334 13.5 -50.001 19.5s-26 12.333 -37 19s-23.5 15.167 -37.5 25.5l-50.5 38l-76.5 56.5c-31.333 23.333 -59.333 51.5 -84 84.5
s-44 67.833 -58 104.5l-43.5 110c-12.333 30.667 -22.666 60.667 -30.999 90s-14.5 60.333 -18.5 93c-2.66699 24.667 -4 53 -4 85v34c0.666992 46 3.66699 85.5 9 118.5s12.833 64.167 22.5 93.5s21.167 59.166 34.5 89.499l47 108.5c15.333 36 35 70.167 59 102.5
s52 59.833 84 82.5l180 132c36.667 26 78.5 45 125.5 57s95.167 18 144.5 18c48.667 0 96.667 -5.33301 144 -16s90 -25.334 128 -44.001c45.333 -22.667 89 -52.334 131 -89.001s80.333 -78 115 -124s64.334 -95.5 89.001 -148.5s42 -106.833 52 -161.5
s11.5 -109.167 4.5 -163.5s-24.833 -105.833 -53.5 -154.5c-10 -17.333 -22 -33.166 -36 -47.499s-28.667 -28 -44 -41s-31.166 -25.667 -47.499 -38s-31.833 -25.166 -46.5 -38.499c-6.66699 -5.33301 -12 -8.5 -16 -9.5s-10 -2.16699 -18 -3.5l-89 -19l-89 -18
c-2 -18 -7.66699 -32 -17 -42s-20 -16 -32 -18s-23.833 0 -35.5 6s-20.5 16 -26.5 30c-1.33301 0 -2.33301 -0.166992 -3 -0.5s-1.66699 -0.5 -3 -0.5c-18.667 2.66699 -33.334 9 -44.001 19s-16.834 21.167 -18.501 33.5s1.33301 24.666 9 36.999s20.5 21.833 38.5 28.5
c3.33301 0.666992 6.83301 1.16699 10.5 1.5s7.5 0.833008 11.5 1.5c3.33301 36.667 6.16602 73.167 8.49902 109.5s5.16602 72.833 8.49902 109.5c-32.667 -20 -64.334 -41.167 -95.001 -63.5s-64.334 -40.5 -101.001 -54.5zM697.007 388.995
c-1.33301 -2 -2.66992 -3.83398 -4.00293 -5.50098s-2.66602 -3.16699 -3.99902 -4.5c24.667 7.33301 48.834 15.666 72.501 24.999s46.834 20.333 69.501 33c2 1.33301 3.83301 2.33301 5.5 3s3.5 1.66699 5.5 3c0 1.33301 0.166992 2.83301 0.5 4.5s0.5 3.16699 0.5 4.5
c1.33301 22 2.83301 43.5 4.5 64.5s3.5 42.167 5.5 63.5c-4 -5.33301 -7.83301 -10.166 -11.5 -14.499s-7.5 -9.16602 -11.5 -14.499l-67 -80c-23.333 -26.667 -45.333 -54 -66 -82z" />
    <glyph glyph-name="A" unicode="A" 
d="M296 384c-17.333 2 -31.002 6.99902 -41.002 14.999l-12.5 -24.5l-12.5 -24.5c-23.333 -46.667 -45.333 -93 -66 -139s-36.667 -94.667 -48 -146c-8 -20 -19.167 -33.5 -33.5 -40.5s-28.166 -8.5 -41.499 -4.5s-24 13 -32 27c-6 9.33301 -9 20.333 -9 33
c0 6.66699 0.666992 13.334 2 20.001c14.667 38 31.834 75.167 51.501 111.5s40.5 72 62.5 107l68 103.5l68 102c16.667 25.333 31.667 51.333 45 78s27.333 53 42 79l86 158l84 159c9.33301 7.33301 19.333 12.666 30 15.999c4.66699 9.33301 11.167 16.666 19.5 21.999
s17.5 8.33301 27.5 9h2c9.33301 0 18.666 -2.66699 27.999 -8c10 -5.33301 19.333 -14 28 -26l63.5 -172.5l64.5 -171.5l84.5 36.5l86.5 34.5c18.667 0.666992 34.167 -3 46.5 -11s20.5 -18 24.5 -30c1.33301 -4.66699 2 -9.66699 2 -15c0 -7.33301 -1.66699 -15 -5 -23
c-6 -14 -17 -25.667 -33 -35l-88 -14.5c-29.333 -5 -59 -11.167 -89 -18.5l12.5 -32l13.5 -32l52 -130c15.333 -39.333 29.333 -78 42 -116s23.834 -77.5 33.501 -118.5s18.167 -87.167 25.5 -138.5c-1.33301 -22 -7.66602 -38.667 -18.999 -50s-24 -17 -38 -17h-1
c-14 0 -26.667 5 -38 15c-12.667 10 -20.334 25.667 -23.001 47v65c0 18 -0.333008 35 -1 51s-2.16699 32.667 -4.5 50s-5.83301 38.666 -10.5 63.999c-11.333 58 -26.333 113.667 -45 167s-39.667 106 -63 158l-50.5 -16c-16.333 -5.33301 -32.5 -11.666 -48.5 -18.999
c-20.667 -9.33301 -46.167 -22.166 -76.5 -38.499l-94.5 -49c-32.667 -16.333 -64.167 -31.166 -94.5 -44.499s-55.833 -21 -76.5 -23zM574.998 885.999l-133.498 -187.5c-43.667 -62.333 -85.5 -126.5 -125.5 -192.5c5.33301 1.33301 11 2.66602 17 3.99902l18 4
c21.333 5.33301 42.166 11 62.499 17s41.166 11.333 62.499 16c2 0.666992 1.66699 0.5 -1 -0.5s-6 -2 -10 -3s-7.33301 -2 -10 -3s-3 -1.16699 -1 -0.5c44 12.667 86.667 27.334 128 44.001l125 53c-20.667 42 -42.167 83.5 -64.5 124.5z" />
    <glyph glyph-name="B" unicode="B" horiz-adv-x="1063" 
d="M89 145c7.33301 0.666992 14.1699 0.330078 20.5029 -1.00293s12.166 -3 17.499 -5c-0.666992 0.666992 -0.333984 0.666992 0.999023 0l4 -2l4 -2c1.33301 -0.666992 1.66602 -1 0.999023 -1c0.666992 -0.666992 1.66699 -1 3 -1l19.5 -4
c6.33301 -1.33301 12.833 -2.33301 19.5 -3l1 -1c1.33301 -1.33301 4 -2 8 -2h14v1c-2.66699 0 -5.5 0.333008 -8.5 1s-5.83301 1 -8.5 1c2.66699 0.666992 5.5 1.33398 8.5 2.00098s5.83301 0.333984 8.5 -0.999023c1.33301 34.667 2.5 69.334 3.5 104.001
s1.5 69.334 1.5 104.001c-15.333 -2.66699 -28.666 -0.666992 -39.999 6s-19.5 15.5 -24.5 26.5s-5.83301 23.333 -2.5 37s12.333 26.5 27 38.5l19.5 14.5l17.5 13.5c-1.33301 14.667 -2.33301 29.334 -3 44.001s-1.66699 29.334 -3 44.001
c-6 74.667 -14.5 148.334 -25.5 221.001s-20.5 146 -28.5 220l-16.5 -27.5l-17.5 -27.5c-13.333 -16.667 -28 -26 -44 -28s-29.833 1.16699 -41.5 9.5s-19.167 20.5 -22.5 36.5c-1.33301 4 -2 8 -2 12c0 12.667 4.33301 26 13 40l62 76
c21.333 26.667 44.166 51.667 68.499 75s50.833 43.333 79.5 60s60.667 27 96 31c14 1.33301 28.167 3.66602 42.5 6.99902s28.666 6.16602 42.999 8.49902s28.5 3.83301 42.5 4.5h6c12 0 23.667 -1.66699 35 -5l71 -19c25.333 -6.66699 50 -15.334 74 -26.001
s46.167 -24 66.5 -40s36.166 -36 47.499 -60c10.667 -22 18.334 -45 23.001 -69s10 -48 16 -72c6 -24.667 4.66699 -51.667 -4 -81s-21.5 -58.833 -38.5 -88.5s-36.167 -58.834 -57.5 -87.501s-42 -55 -62 -79c32.667 0.666992 67 -1.16602 103 -5.49902
s70.5 -11.5 103.5 -21.5s62.667 -22.833 89 -38.5s46.5 -34.167 60.5 -55.5l29.5 -45c7.66699 -11.333 13.667 -20.666 18 -27.999s7.16602 -14 8.49902 -20s2 -13 2 -21c0 -8.66699 -0.666992 -19.834 -2 -33.501s-2.66602 -31.5 -3.99902 -53.5v-9.5
c0 -3 -1.33301 -6.16699 -4 -9.5c-13.333 -20 -26 -40.833 -38 -62.5s-27.667 -39.834 -47 -54.501c-40.667 -31.333 -84.834 -55.833 -132.501 -73.5s-97 -31.667 -148 -42s-102.5 -18.166 -154.5 -23.499s-102.333 -11 -151 -17c-6.66699 -1.33301 -13.667 -2.5 -21 -3.5
l-25 -3.5c-4.66699 -11.333 -11 -20 -19 -26s-16.667 -9.33301 -26 -10h-7c-7.33301 0 -14.666 1.33301 -21.999 4c-9.33301 3.33301 -17.333 9.33301 -24 18c-29.333 -2.66699 -57.5 -2.83398 -84.5 -0.500977s-48.5 9.83301 -64.5 22.5
c-9.33301 10 -15.833 20.167 -19.5 30.5s-4.5 20.5 -2.5 30.5s6.83301 19 14.5 27s17.834 14.667 30.501 20h2zM278.004 381.996l16.498 -124.499c5.66699 -41 10.834 -82.5 15.501 -124.5c14.667 2 26 3 34 3c30.667 2 65.5 3.5 104.5 4.5s79.167 3.16699 120.5 6.5
s82.833 8.66602 124.5 15.999s80.667 18.166 117 32.499s68.5 32.833 96.5 55.5s49.667 51 65 85c5.33301 12.667 8 26.167 8 40.5s-2 27.833 -6 40.5c-8 27.333 -22.5 50.333 -43.5 69s-44.667 34 -71 46s-54 20.667 -83 26s-55.5 8.33301 -79.5 9
c-49.333 0.666992 -92.666 -3.16602 -129.999 -11.499s-72 -20.833 -104 -37.5s-62.667 -36.5 -92 -59.5zM262.002 514.997l34.001 26.502c8.66699 7 16.667 12.833 24 17.5s14.5 8.66699 21.5 12s15.5 7 25.5 11s22.5 8.5 37.5 13.5l56.5 19.5c0 14 4.33301 28.333 13 43
c30 30 60.667 59.167 92 87.5s59.333 59.5 84 93.5c30 42.667 48.167 85.167 54.5 127.5s1.83301 80.666 -13.5 114.999s-40.833 62.333 -76.5 84s-79.834 33.167 -132.501 34.5c-46.667 1.33301 -91.5 -5.33398 -134.5 -20.001s-82.167 -37.334 -117.5 -68.001
c12 -9.33301 21 -23.333 27 -42c-4 -84.667 -6.66699 -169.167 -8 -253.5s1.66699 -169.166 9 -254.499l2 -23.5zM115.003 140.999c1.33301 -0.666992 2.5 -0.998047 3.5 -0.998047s2.16699 -0.333008 3.5 -1c-3.33301 1.33301 -6 2.16602 -8 2.49902
s-1.66699 0.166016 1 -0.500977z" />
    <glyph glyph-name="C" unicode="C" horiz-adv-x="1236" 
d="M858 1003c-12.667 1.33301 -23.166 4.5 -31.499 9.5s-15.166 11.167 -20.499 18.5c-4.66699 3.33301 -8.66699 6.83301 -12 10.5s-7.66602 7.5 -12.999 11.5c-14 10.667 -29.167 19.167 -45.5 25.5s-33.166 11.833 -50.499 16.5l-93 23.5
c-31.333 7.66699 -62.666 13.167 -93.999 16.5s-62.833 3.83301 -94.5 1.5s-63.167 -9.16602 -94.5 -20.499c-32 -11.333 -62 -27.5 -90 -48.5s-51.333 -46.5 -70 -76.5c-12 -19.333 -23 -43.166 -33 -71.499s-18.833 -59 -26.5 -92s-13.834 -67.5 -18.501 -103.5
s-7.83398 -71 -9.50098 -105s-1.5 -66 0.5 -96s6 -56 12 -78c8.66699 -28 16.667 -56.167 24 -84.5s18.333 -55.166 33 -80.499c18.667 -32 41.334 -58.333 68.001 -79s55.667 -36.5 87 -47.5s64.333 -18 99 -21s69 -3.5 103 -1.5c56 4 111 12.833 165 26.5
s107.333 30.167 160 49.5s104.667 40.5 156 63.5l152 68.5c20.667 8 38.5 9 53.5 3s25.5 -15.333 31.5 -28c3.33301 -7.33301 5 -15.333 5 -24c0 -6 -0.666992 -12 -2 -18c-4.66699 -16 -16.334 -29.333 -35.001 -40l-123 -49.5c-42 -17 -84.5 -33 -127.5 -48
s-86.333 -28.5 -130 -40.5s-86.834 -20.667 -129.501 -26c-22 -2.66699 -47.833 -6.16699 -77.5 -10.5s-60.167 -7.83301 -91.5 -10.5c-20.667 -2 -41.334 -3 -62.001 -3c-10 0 -20 0.333008 -30 1c-30 1.33301 -56.333 6.66602 -79 15.999l-68.5 27
c-17.667 6.66699 -32.5 12.834 -44.5 18.501s-22.167 11.5 -30.5 17.5s-17.166 13.667 -26.499 23s-20.166 21.5 -32.499 36.5l-47.5 57.5c-12.667 14.667 -22.834 32.5 -30.501 53.5s-13.834 43.167 -18.501 66.5s-8.33398 47 -11.001 71s-5 46 -7 66
c-3.33301 34 -5.33301 71.333 -6 112c-0.666992 9.33301 -1 18.666 -1 27.999c-0 32 1.33301 64.333 4 97c3.33301 42 9 84.167 17 126.5s19.833 82.166 35.5 119.499s35.5 71.333 59.5 102s53 56 87 76c42.667 24.667 84.334 42.667 125.001 54s81.334 18 122.001 20h27
c32 0 64.667 -2.33301 98 -7c42 -6 86.333 -14 133 -24c28.667 -6.66699 58.5 -15.5 89.5 -26.5s57.167 -27.167 78.5 -48.5l7 -3c11.333 -7.33301 19.166 -14.833 23.499 -22.5s9.16602 -17.834 14.499 -30.501c-1.33301 -19.333 -6.33301 -34.5 -15 -45.5
s-22.667 -18.5 -42 -22.5h-6z" />
    <glyph glyph-name="D" unicode="D" horiz-adv-x="1538" 
d="M681 26c-5.33301 11.333 -8.33398 22.001 -9.00098 32.001s0.666016 19 3.99902 27s8 14.833 14 20.5s13 9.83398 21 12.501c-3.33301 7.33301 -5.33301 15 -6 23c5.33301 85.333 10.333 170.166 15 254.499s5.33398 169.166 2.00098 254.499
c-3.33301 84 -9.5 167.667 -18.5 251s-17.167 167 -24.5 251c4 19.333 11.667 33.666 23 42.999c-36 -4.66699 -72 -10.834 -108 -18.501s-72 -16.834 -108 -27.501c-44.667 -13.333 -89.167 -28.166 -133.5 -44.499s-86.5 -36.833 -126.5 -61.5
c-23.333 -14.667 -45.5 -30.834 -66.5 -48.501s-41.5 -36.167 -61.5 -55.5c-16.667 -10 -32.167 -14.167 -46.5 -12.5s-26 7 -35 16s-14.167 20.833 -15.5 35.5c-0.666992 2 -1 4 -1 6c0 12.667 4.33301 26 13 40c47.333 40.667 97.333 75.834 150 105.501
s107.334 54.667 164.001 75s115 36.5 175 48.5s120.667 21 182 27c20 2 41 3.83301 63 5.5s44 2.83398 66 3.50098h8c19.333 0 38.333 -1 57 -3c21.333 -2.66699 41.666 -7.33398 60.999 -14.001c22 -7.33301 45 -13.666 69 -18.999s47.5 -11 70.5 -17
s45.167 -13.5 66.5 -22.5s41 -21.167 59 -36.5l86.5 -73.5l85.5 -74.5c14 -12 27.667 -28.333 41 -49s25.5 -43.5 36.5 -68.5s20.667 -51.333 29 -79s15 -55 20 -82s8.16699 -52.5 9.5 -76.5c0.666992 -6.66699 1 -12.667 1 -18c0 -17.333 -1.66699 -32.666 -5 -45.999
l-22.5 -102l-23.5 -102c-4.66699 -18.667 -13.167 -39.5 -25.5 -62.5s-27.166 -46.5 -44.499 -70.5s-36.666 -47.667 -57.999 -71s-43 -44.833 -65 -64.5s-43.833 -36.667 -65.5 -51s-41.5 -24.5 -59.5 -30.5l-118 -37l-119 -36c-14.667 -4.66699 -33 -7.66699 -55 -9
c-8.66699 -0.666992 -17.334 -1 -26.001 -1c-13.333 0 -27 0.666992 -41 2c-22.667 2.66699 -43.5 8 -62.5 16s-32.833 19.667 -41.5 35zM823.999 146.001c-0.666992 -12.667 -3.16699 -23.668 -7.5 -33.001s-9.83301 -16.666 -16.5 -21.999h7l32.5 -2
c10.333 -0.666992 20.833 -0.666992 31.5 0c40.667 1.33301 80.5 7.5 119.5 18.5s76.833 24.5 113.5 40.5c46.667 20.667 89.5 47.5 128.5 80.5s72.667 70.167 101 111.5s51.333 85.833 69 133.5s28.5 96.834 32.5 147.501c3.33301 32 3.83301 64.167 1.5 96.5
s-7.83301 63.833 -16.5 94.5c-40 140.667 -126 244.334 -258 311.001c-66 33.333 -131.667 55.666 -197 66.999s-131.333 15 -198 11c6.66699 -4 12.667 -9.66699 18 -17s9.66602 -16.333 12.999 -27c-5.33301 -84 -10.166 -168 -14.499 -252s-4.83301 -168.333 -1.5 -253
s9.5 -168.834 18.5 -252.501s16.833 -168.167 23.5 -253.5z" />
    <glyph glyph-name="E" unicode="E" horiz-adv-x="912" 
d="M520 643c12.667 -17.333 17.9971 -33.9951 15.9971 -49.9951s-8.33301 -28.667 -19 -38s-24.167 -13.666 -40.5 -12.999s-32.166 8.66699 -47.499 24c-3.33301 4.66699 -6.33301 7.83398 -9 9.50098s-6 2.33398 -10 2.00098s-9.33301 -1 -16 -2s-15.667 -1.5 -27 -1.5
c-24.667 0 -48.667 -2.33301 -72 -7s-46 -11 -68 -19c-0.666992 -66.667 0 -133.334 2 -200.001s4.66699 -133.334 8 -200.001c42 -9.33301 84.5 -17.666 127.5 -24.999s86.167 -11.666 129.5 -12.999c56 -1.33301 113.167 1.5 171.5 8.5s114.5 13.167 168.5 18.5
c18 -5.33301 31.333 -13.666 40 -24.999s13 -23.333 13 -36v-1c-0.666992 -12.667 -5.83398 -24.334 -15.501 -35.001s-23.834 -18 -42.501 -22c-54.667 6 -110.5 12.5 -167.5 19.5s-113.5 11.167 -169.5 12.5c-42 1.33301 -84.167 1.16602 -126.5 -0.500977
s-84.5 -3.16699 -126.5 -4.5c-3.33301 -18 -10.666 -31.333 -21.999 -40s-23 -13 -35 -13h-2c-13.333 0.666992 -25.666 6.16699 -36.999 16.5s-18.333 25.5 -21 45.5v3c-9.33301 6.66699 -16.166 14.667 -20.499 24s-6.16602 18.666 -5.49902 27.999
s3.83398 18.333 9.50098 27s14.167 15.334 25.5 20.001c5.33301 60.667 11 121.334 17 182.001s10.667 121.667 14 183l-40 -22l-40 -23c-18.667 -4 -34.667 -2.83301 -48 3.5s-22.666 15.166 -27.999 26.499c-4 7.33301 -6 15 -6 23c0 4.66699 0.666992 9.66699 2 15
c3.33301 14 12.333 27 27 39c22.667 5.33301 45.334 10.166 68.001 14.499l68 12.5c0.666992 11.333 0.833984 22.333 0.500977 33s-0.5 21.667 -0.5 33c-1.33301 54 -4.83301 108 -10.5 162s-12.5 108 -20.5 162c-10.667 4 -19.167 10 -25.5 18s-10.333 16.667 -12 26
s-0.666992 19 3 29s10.5 18.667 20.5 26c-0.666992 17.333 1.66602 33.5 6.99902 48.5s16.333 27.167 33 36.5c14 5.33301 27 7.16602 39 5.49902s22 -5.66699 30 -12s13.833 -14.333 17.5 -24s4.5 -19.5 2.5 -29.5c30 3.33301 59.833 6.33301 89.5 9s59.5 6 89.5 10
c49.333 7.33301 98.166 15.666 146.499 24.999s97.166 17.333 146.499 24c18 -5.33301 31.333 -13.833 40 -25.5s12.834 -23.834 12.501 -36.501s-5.33301 -24.334 -15 -35.001s-23.834 -18 -42.501 -22c-46 5.33301 -92.667 10.166 -140 14.499s-94 3.16602 -140 -3.50098
c-4 -0.666992 -10.333 -2 -19 -4l-29 -7c-10.667 -2.66699 -21.834 -5.66699 -33.501 -9l-32.5 -9l-1 -1c-14 -6.66699 -28.333 -12.667 -43 -18l-45 -16c0.666992 -36 1.66699 -72 3 -108s1.33301 -72 0 -108c0 -7.33301 -0.333008 -17.833 -1 -31.5
s-1.33398 -29 -2.00098 -46l-2 -53l-2 -52.5c10 2 20.167 4.16699 30.5 6.5s20.5 4.83301 30.5 7.5c10.667 2.66699 24.834 7 42.501 13s36 11.5 55 16.5s37.5 8.16699 55.5 9.5s33 -1 45 -7c1.33301 -0.666992 3.5 -2.16699 6.5 -4.5l10 -7.5l10 -7.5
c3 -2.33301 4.83301 -3.83301 5.5 -4.5z" />
    <glyph glyph-name="F" unicode="F" horiz-adv-x="947" 
d="M492 677c22 1.33301 39.168 -3.33496 51.501 -14.002s19.333 -23 21 -37s-2.16602 -27.667 -11.499 -41s-24.666 -22 -45.999 -26c-12.667 2.66699 -25.5 3.66699 -38.5 3s-25.5 1.66602 -37.5 6.99902h-1c-11.333 -1.33301 -22.333 -3.33301 -33 -6
c3.33301 -91.333 7.33301 -182.166 12 -272.499s9.66699 -181.833 15 -274.5c-1.33301 -22 -7.66602 -38.667 -18.999 -50s-24 -17 -38 -17h-1c-14 0 -26.667 5 -38 15c-12.667 10 -20.334 25.667 -23.001 47c4.66699 86.667 8.16699 172.834 10.5 258.501
s3.5 172.167 3.5 259.5c-14.667 -10.667 -28 -24 -40 -40c-1.33301 -2 -0.666016 -1.66699 2.00098 1s5.66699 5.5 9 8.5s6.33301 5.5 9 7.5s3.66699 2 3 0c-2.66699 -6 -6.83398 -11 -12.501 -15s-10.834 -8.66699 -15.501 -14c-18.667 -11.333 -36 -15.166 -52 -11.499
s-28.167 11.334 -36.5 23.001s-11.5 25.5 -9.5 41.5s11.333 30.667 28 44c38 12 76 23 114 33c-0.666992 70 -2.16699 139.667 -4.5 209s-5.5 139 -9.5 209c-1.33301 18 -2.33301 36.167 -3 54.5s-1.66699 36.833 -3 55.5l-108.5 -39.5
c-35.667 -13 -71.5 -27.833 -107.5 -44.5c-21.333 -4 -39 -1.83301 -53 6.5s-23 19.166 -27 32.499c-1.33301 4.66699 -2 9.66699 -2 15c0 8.66699 2.33301 17.667 7 27c6.66699 14 20 25 40 33c40.667 10.667 81.167 20.334 121.5 29.001s81.166 16.667 122.499 24
c-1.33301 13.333 -2.33301 26.666 -3 39.999s0.333008 26.166 3 38.499s7.33398 23.833 14.001 34.5s16.334 19.667 29.001 27c11.333 4 21.666 6 30.999 6c6 0 11.667 -0.666992 17 -2c14 -4 24.667 -11.167 32 -21.5s10.666 -22.166 9.99902 -35.499
s-6.33398 -26 -17.001 -38l-4 -12c-1.33301 -4 -2 -4.66699 -2 -2c0 1.33301 -0.166992 2.66602 -0.5 3.99902s-0.166016 2.66602 0.500977 3.99902l-3 -3c-0.666992 -3.33301 -1 -7.16602 -1 -11.499v-13.5c26 3.33301 51.833 6.16602 77.5 8.49902s51.5 4.5 77.5 6.5
c34 2.66699 68.5 5.83398 103.5 9.50098s69.167 1.83398 102.5 -5.49902c10.667 -2 21 -4.33301 31 -7s19.667 -5.66699 29 -9l33 -9.5c10 -3 13.333 -3.5 10 -1.5c-1.33301 0.666992 -2.66602 1.66699 -3.99902 3c2 -0.666992 6 -1 12 -1
c18 -5.33301 31.333 -13.666 40 -24.999s13 -23.333 13 -36v-1c-0.666992 -12.667 -5.83398 -24.334 -15.501 -35.001s-23.834 -18 -42.501 -22c-14.667 2.66699 -28.667 6.83398 -42 12.501l-40.5 17.5l-40.5 17.5c-13.333 5.66699 -27.333 9.5 -42 11.5
c-57.333 8.66699 -109.5 12.167 -156.5 10.5s-95.167 -7.16699 -144.5 -16.5c-0.666992 -18 -1.66699 -39.5 -3 -64.5s-2.5 -50.667 -3.5 -77s-1.83301 -51.666 -2.5 -75.999s-1 -44.5 -1 -60.5c0.666992 -41.333 1.5 -82.333 2.5 -123s2.16699 -81.334 3.5 -122.001
c16 8 32.167 15.167 48.5 21.5s32.833 12.166 49.5 17.499zM402.001 1278c-2 -2.66699 -3.33105 -6.33301 -3.99805 -11c1.33301 0.666992 2.16602 1.16699 2.49902 1.5s1.16602 0.833008 2.49902 1.5c0.666992 3.33301 1 6 1 8s-0.666992 2 -2 0z" />
    <glyph glyph-name="G" unicode="G" horiz-adv-x="1120" 
d="M748 674c-13.333 13.333 -21.1729 27.1631 -23.5059 41.4961s-0.166016 27 6.50098 38s16.834 19 30.501 24s29.5 4.83301 47.5 -0.5c12.667 -8 25.834 -12.167 39.501 -12.5s27.5 1 41.5 4s28 6.83301 42 11.5s28 7.66699 42 9c9.33301 0.666992 20 1 32 1
s23.667 -1.33301 35 -4s21.5 -7.16699 30.5 -13.5s15.5 -14.833 19.5 -25.5c2.66699 -8 4 -16 4 -24v-7c-1.33301 -10 -3.66602 -20 -6.99902 -30c-0.666992 -1.33301 -1.33398 -2.33301 -2.00098 -3l-49 -128c-4.66699 -12 -8.66699 -23 -12 -33s-6.5 -21.333 -9.5 -34
l-12.5 -53c-7.33301 -30 -13.666 -60.833 -18.999 -92.5s-9.66602 -63.167 -12.999 -94.5c-4 -40 -4 -77.833 0 -113.5s10.667 -72.5 20 -110.5c-0.666992 -18.667 -5.66699 -33.667 -15 -45s-20 -18.333 -32 -21c-4 -0.666992 -7.66699 -1 -11 -1
c-9.33301 0 -18.333 2.33301 -27 7c-13.333 6.66699 -24 18.667 -32 36c-1.33301 15.333 -3.5 30.166 -6.5 44.499s-4.16699 29.166 -3.5 44.499c0.666992 26 2.33398 51.833 5.00098 77.5s6.66699 51.167 12 76.5l-129.5 -70c-43.667 -24.667 -88.334 -46 -134.001 -64
s-92.834 -30 -141.501 -36s-99 -1.33301 -151 14c-32.667 10 -64.667 24.833 -96 44.5s-59.666 42.834 -84.999 69.501s-47 56 -65 88s-30 65.333 -36 100l-17.5 108.5l-17.5 108.5c-5.33301 30.667 -8 62 -8 94c0 9.33301 0.333008 19 1 29c2 42 8.66699 82.333 20 121
c10.667 34.667 20.334 68.334 29.001 101.001s19.167 63.834 31.5 93.501s28.166 57.667 47.499 84s44.666 51.166 75.999 74.499c36 26.667 73.667 46 113 58s79.666 19 120.999 21c9.33301 0.666992 18.666 1 27.999 1c32 0 64 -2.66699 96 -8
c42 -6.66699 83.667 -15.334 125 -26.001c5.33301 -1.33301 16.333 -5 33 -11l52 -18.5l48 -17c14 -5 21.667 -7.5 23 -7.5c3.33301 -1.33301 6.33301 -2.33301 9 -3s5.33398 -1.66699 8.00098 -3c12.667 -9.33301 21.334 -18.666 26.001 -27.999s6.33398 -22 5.00098 -38
c-1.33301 -9.33301 -4.33301 -17.333 -9 -24s-10.334 -13.667 -17.001 -21c-21.333 -12.667 -40.666 -16.334 -57.999 -11.001s-29 15.666 -35 30.999c-9.33301 4.66699 -18.666 9 -27.999 13l-33 14c-44 17.333 -88.833 32 -134.5 44s-92.5 18.667 -140.5 20
c-51.333 2 -96.666 -6.66699 -135.999 -26s-73.333 -45.666 -102 -78.999s-52.334 -72.166 -71.001 -116.499s-33 -89.833 -43 -136.5c-6.66699 -34 -11.167 -72.833 -13.5 -116.5s-1.16602 -88.5 3.50098 -134.5s13.167 -91.667 25.5 -137s29.166 -86.666 50.499 -123.999
s48 -69.166 80 -95.499s70.333 -43.5 115 -51.5c50 -9.33301 96.333 -9.16602 139 0.500977s83.5 24.167 122.5 43.5s77.5 41.666 115.5 66.999s77 49.666 117 72.999c13.333 5.33301 25.833 7.33301 37.5 6s21.5 -4.66602 29.5 -9.99902
c4.66699 17.333 9.66699 34.5 15 51.5l16 51.5l27 84.5c8.66699 28.333 16.667 56.5 24 84.5l10 35.5l10 34.5c0 0.666992 0.666992 3 2 7c-3.33301 0.666992 -6.33301 1.16699 -9 1.5s-4.66699 0.166016 -6 -0.500977c-3.33301 -1.33301 -8 -3 -14 -5
s-12.333 -4.33301 -19 -7l-19.5 -7.5c-6.33301 -2.33301 -10.833 -4.16602 -13.5 -5.49902c-20 -8 -37 -14.167 -51 -18.5s-27.5 -6.66602 -40.5 -6.99902s-26.5 1.33398 -40.5 5.00098s-30.667 9.5 -50 17.5z" />
    <glyph glyph-name="H" unicode="H" horiz-adv-x="1130" 
d="M119 51c-1.33301 -22 -7.67578 -38.6738 -19.0088 -50.0068s-24 -17.166 -38 -17.499s-27.167 4.66699 -39.5 15s-19.833 26.166 -22.5 47.499c5.33301 58.667 11.5 116.834 18.5 174.501l21.5 174.5c-9.33301 21.333 -7 40.666 7 57.999
c2.66699 24.667 5.16699 49.334 7.5 74.001s4.5 49.334 6.5 74.001c6.66699 94.667 6.83398 188.334 0.500977 281.001s-15.166 185.667 -26.499 279c4 18.667 11.333 32.834 22 42.501s22.334 14.834 35.001 15.501h1c12.667 0 24.667 -4.33301 36 -13
s19.666 -22 24.999 -40c0 -96.667 -3.83301 -192.167 -11.5 -286.5l-22.5 -286.5c-3.33301 -40.667 -5.33301 -80.334 -6 -119.001c9.33301 1.33301 17.833 2.83301 25.5 4.5s16.5 3.83398 26.5 6.50098c34.667 8 66.334 14.667 95.001 20s61 10.666 97 15.999
c33.333 5.33301 66.333 10.166 99 14.499s65.334 9.16602 98.001 14.499c44.667 8 88.334 18 131.001 30c-9.33301 92 -20.833 183 -34.5 273s-24.5 181 -32.5 273c4 18.667 11.333 32.834 22 42.501s22.334 14.667 35.001 15s24.834 -3.83398 36.501 -12.501
s20.167 -22 25.5 -40c-3.33301 -89.333 -5.16602 -178.5 -5.49902 -267.5s3.5 -178.167 11.5 -267.5c49.333 14.667 97.833 30.334 145.5 47.001l142.5 51c18.667 0.666992 34.167 -3 46.5 -11s20.5 -18 24.5 -30c1.33301 -4.66699 2 -9.66699 2 -15
c0 -7.33301 -1.66699 -15 -5 -23c-6 -14 -17 -25.667 -33 -35c-52.667 -11.333 -105.167 -21 -157.5 -29l-158.5 -25c10 -85.333 21.5 -170.166 34.5 -254.499s23.167 -169.5 30.5 -255.5c-1.33301 -22 -7.66602 -38.667 -18.999 -50s-24 -17 -38 -17h-1
c-14 0 -26.667 5 -38 15c-12.667 10 -20.334 25.667 -23.001 47c3.33301 84.667 5.16602 168.834 5.49902 252.501s-3.16699 167.5 -10.5 251.5c-21.333 -3.33301 -42.833 -7.16602 -64.5 -11.499l-64.5 -13.5l-97.5 -23l-97.5 -25c-16 -4.66699 -31.833 -9 -47.5 -13
s-31.167 -8.33301 -46.5 -13c6.66699 1.33301 11 2.33301 13 3c0.666992 0 -3.16602 -1.66699 -11.499 -5s-15.5 -6.33301 -21.5 -9c-9.33301 -3.33301 -18.833 -7 -28.5 -11l-29.5 -12c-12.667 -5.33301 -26.167 -10.666 -40.5 -15.999s-29.166 -8.66602 -44.499 -9.99902
v-142l1 -2c2 -26.667 3.33301 -53.334 4 -80.001s1.66699 -53.667 3 -81z" />
    <glyph glyph-name="I" unicode="I" horiz-adv-x="162" 
d="M119 33c-1.33301 -22 -7.67383 -38.6699 -19.0068 -50.0029s-24 -17 -38 -17l-10 -2l-20 8l-9 9l-10 8c-6 4.66699 -9.66699 12.334 -11 23.001l-2 16c4 49.333 9.16699 99 15.5 149l18.5 149.5c6 49.667 11 99.5 15 149.5s6 99.667 6 149c0 44.667 -3 90.334 -9 137.001
l-18 140.5c-6 47 -10.667 93.667 -14 140s-2.33301 91.833 3 136.5c4 18 11.333 32 22 42c10.667 9.33301 22.334 14.333 35.001 15c18.667 -2 30.667 -6 36 -12c11.333 -8.66699 18.333 -17.334 21 -26.001l4 -14c1.33301 -4 2 -7 2 -9
c-1.33301 -13.333 -3.66602 -24 -6.99902 -32c-1.33301 -6 -2.66602 -16.667 -3.99902 -32s-2 -23.5 -2 -24.5s-0.333008 -0.833008 -1 0.5c-1.33301 -6 -2.16602 -14.667 -2.49902 -26s-1.16602 -22.666 -2.49902 -33.999c-1.33301 -34 -2.16602 -67.833 -2.49902 -101.5
s-0.166016 -67.5 0.500977 -101.5c2.66699 -96 3 -191.667 1 -287s-3.66699 -191.333 -5 -288v-1c0 -0.666992 0.166992 -1 0.5 -1s0.5 -0.333008 0.5 -1c2.66699 -35.333 4 -70.666 4 -105.999s0.666992 -71 2 -107z" />
    <glyph glyph-name="J" unicode="J" horiz-adv-x="537" 
d="M5 188c10 16.667 21.835 27.4961 35.502 32.4961s26.5 5.66699 38.5 2s22 -11.167 30 -22.5s11 -25.333 9 -42c1.33301 -4.66699 3.66602 -10.834 6.99902 -18.501s5.33301 -12.167 6 -13.5l13 -25c4.66699 -8.66699 9.66699 -16.667 15 -24
c13.333 0.666992 26.166 1 38.499 1h37.5c12.667 14.667 25.834 28.5 39.501 41.5s24.834 27.833 33.501 44.5c25.333 50 45.333 105.167 60 165.5s25.667 123.833 33 190.5s11.666 134.834 12.999 204.501s1 138.5 -1 206.5s-5 134.167 -9 198.5l-11 179.5
c4 18.667 11.333 32.834 22 42.501s22.334 14.834 35.001 15.501h1c12.667 0 24.667 -4.33301 36 -13s19.666 -22 24.999 -40c-3.33301 -128.667 -8.33301 -256.334 -15 -383.001s-17.334 -254 -32.001 -382c-1.33301 -12.667 -3.33301 -30.167 -6 -52.5l-9 -75
c-3.33301 -27.667 -7.33301 -56.5 -12 -86.5s-10 -58.833 -16 -86.5s-12.5 -52.667 -19.5 -75s-14.833 -39.833 -23.5 -52.5l-40.5 -61.5c-10.333 -16.333 -19.5 -29.666 -27.5 -39.999s-15.833 -18.166 -23.5 -23.499s-17.5 -9.33301 -29.5 -12s-27.167 -4.66699 -45.5 -6
l-70.5 -5h-3c-9.33301 0 -19.666 3.66699 -30.999 11c-12.667 7.33301 -24.834 17.333 -36.501 30s-22.5 27 -32.5 43s-18.167 32.167 -24.5 48.5s-10.5 31.833 -12.5 46.5c-1.33301 4.66699 -2 9 -2 13c0 8.66699 1.66699 16.334 5 23.001z" />
    <glyph glyph-name="K" unicode="K" horiz-adv-x="1078" 
d="M771 1200c22 1.33301 39.1602 -3.33008 51.4932 -13.9971s19.333 -23 21 -37s-2.16602 -27.667 -11.499 -41s-24.666 -22 -45.999 -26c-30.667 -4 -59.167 -13.167 -85.5 -27.5s-51.333 -31.166 -75 -50.499s-46 -40.5 -67 -63.5l-61.5 -66.5l-72 -77.5
c-23.333 -24.333 -47.166 -47.5 -71.499 -69.5s-49.666 -42.667 -75.999 -62s-55.166 -37.333 -86.499 -54c14.667 -6 28.667 -12.167 42 -18.5l36.5 -18c11 -5.66699 20.333 -10.834 28 -15.501s12.834 -8 15.501 -10l62.5 -44.5c15 -10.333 28.333 -20 40 -29
s24.167 -19.5 37.5 -31.5l57 -52c47.333 -44 93.333 -89 138 -135s92 -90 142 -132l42.5 -34c14.333 -11.333 29.166 -22 44.499 -32c22 -14 43.333 -25.833 64 -35.5s41 -21.167 61 -34.5c18 -5.33301 31.333 -13.666 40 -24.999c7.33301 -10.667 11 -21.667 11 -33v-4
c-1.33301 -12.667 -6.83301 -24.334 -16.5 -35.001s-23.5 -18 -41.5 -22c-14 1.33301 -29.333 6 -46 14s-33.167 17 -49.5 27s-31.5 20.167 -45.5 30.5l-34 25.5c-42.667 32 -82.667 67.167 -120 105.5l-109.5 117.5l-107.5 119.5c-36 39.667 -74 77.167 -114 112.5
c-22 19.333 -40 34.5 -54 45.5s-27.333 20.833 -40 29.5s-26.834 17.167 -42.501 25.5l-60.5 32.5c-8 4.66699 -17.167 7.66699 -27.5 9s-20.166 2.66602 -29.499 3.99902c-2 -91.333 -2.16699 -182 -0.5 -272s3.16699 -180.667 4.5 -272
c-1.33301 -22 -7.66602 -38.667 -18.999 -50s-24 -17.166 -38 -17.499s-27.167 4.66699 -39.5 15s-19.833 26.166 -22.5 47.499l28.5 272.5c9.66699 90.333 17.834 181.166 24.501 272.499c-8 4.66699 -13 11.667 -15 21s0 19 6 29c2.66699 4.66699 7 8.66699 13 12
c2.66699 48 4.16699 96.167 4.5 144.5s0.166016 96.666 -0.500977 144.999l-2 145c-0.666992 48.333 0 96.5 2 144.5c4 21.333 12.667 36.666 26 45.999c11.333 8 23 12 35 12h6c14 -2 26.333 -9.16699 37 -21.5s15.334 -29.5 14.001 -51.5
c-9.33301 -60.667 -17.333 -121.667 -24 -183s-13 -123 -19 -185c-2.66699 -28.667 -5.5 -57 -8.5 -85s-5.83301 -56.333 -8.5 -85l4 2l4 2c60 31.333 114 69.333 162 114c35.333 34 68 70.333 98 109l92 114.5c31.333 37.667 64.5 73 99.5 106s75.167 60.5 120.5 82.5
c4.66699 2.66699 10.5 4.83398 17.5 6.50098l21 5c7 1.66699 13.5 3 19.5 4s10.667 1.83301 14 2.5z" />
    <glyph glyph-name="L" unicode="L" horiz-adv-x="912" 
d="M79 1178c4 18.667 11.334 33.0049 22.001 43.0049c10.667 9.33301 22.334 14.333 35.001 15c12.667 0 25 -4.33301 37 -13c11.333 -8.66699 18.333 -17.334 21 -26.001l4 -14l-19 -274.5c-6.66699 -92.333 -10.667 -184.833 -12 -277.5s1.66699 -184.834 9 -276.501
s22.333 -182.167 45 -271.5c2.66699 -1.33301 4.33398 -2.33301 5.00098 -3c2.66699 -2 6 -5 10 -9c5.33301 0 10.666 -0.333008 15.999 -1s10.666 -1 15.999 -1c7.33301 0 19.833 -0.333008 37.5 -1s36.334 -1.33398 56.001 -2.00098s38.334 -1 56.001 -1h37.5
c64 3.33301 127.5 9 190.5 17s125.833 15 188.5 21l14 -4c8.66699 -2.66699 17.334 -9.66699 26.001 -21c8.66699 -12 13 -24.333 13 -37c-0.666992 -12.667 -5.66699 -24.334 -15 -35.001c-10 -10.667 -19.667 -17 -29 -19l-14 -3l-59 5
c-39.333 3.33301 -98 7.16602 -176 11.499s-156.333 2.83301 -235 -4.5l-50.5 -4.5c-11.667 -1 -21 -1.66699 -28 -2s-12.833 -0.833008 -17.5 -1.5s-11 -1.33398 -19 -2.00098c-8.66699 -8.66699 -19.834 -14.167 -33.501 -16.5s-28.834 0.166992 -45.501 7.5l-1 1
l-40.5 -6l-31.5 -5l-8 -4l-10 -2h-7l-9 1c-12.667 2 -25 8.66699 -37 20c-11.333 10.667 -18 22.667 -20 36l-1 8l1 14l1 6c2.66699 6.66699 5.66699 12 9 16c2.66699 5.33301 9.66699 10.666 21 15.999s20.666 7.33301 27.999 6l10 -2c5.33301 1.33301 11.166 2 17.499 2
h18.5c-2 20.667 -3.5 42.834 -4.5 66.501s-1.66699 46.334 -2 68.001s-0.333008 40.5 0 56.5s0.5 27 0.5 33c2 290 -5 580 -21 870z" />
    <glyph glyph-name="M" unicode="M" horiz-adv-x="1228" 
d="M1049 1231c4 18.667 11.334 32.8232 22.001 42.4902s22.334 14.834 35.001 15.501h1c12.667 0 24.667 -4.33301 36 -13s19.666 -22 24.999 -40l-10.5 -156.5l-10.5 -157c-3.33301 -52.333 -6.16602 -104.666 -8.49902 -156.999s-3.16602 -104.5 -2.49902 -156.5
c1.33301 -104 8.5 -207.333 21.5 -310s28.167 -205.667 45.5 -309c-1.33301 -22 -7.66602 -38.667 -18.999 -50s-24 -17 -38 -17h-1c-14 0 -26.667 5 -38 15c-12.667 10 -20.334 25.667 -23.001 47c-4 78.667 -7 156.5 -9 233.5s-2.66699 154.833 -2 233.5
c0 26 0.666992 51.833 2 77.5s1.66602 51.5 0.999023 77.5c-1.33301 76.667 -3.5 152.667 -6.5 228s-6.83301 151.333 -11.5 228c-12 -16.667 -24.667 -36.167 -38 -58.5s-26 -44.833 -38 -67.5l-33.5 -64l-24.5 -48c-30.667 -63.333 -58.667 -128 -84 -194
s-48.5 -132.667 -69.5 -200s-40.333 -135.166 -58 -203.499s-34.5 -136.833 -50.5 -205.5c-8 -20 -19.167 -33.5 -33.5 -40.5s-28.166 -8.5 -41.499 -4.5s-24.166 13 -32.499 27s-10.5 31.667 -6.5 53c2.66699 6.66699 5 13.334 7 20.001s4.33301 13.334 7 20.001
c-9.33301 1.33301 -18.5 5.5 -27.5 12.5s-16.833 17.167 -23.5 30.5l-80.5 273c-27.667 90.667 -61.167 179.334 -100.5 266.001c-28.667 63.333 -61.167 124.5 -97.5 183.5s-75.833 115.833 -118.5 170.5c-1.33301 -24.667 -2.5 -43 -3.5 -55s-1.66699 -23.833 -2 -35.5
s-0.833008 -26.167 -1.5 -43.5s-1.33398 -43 -2.00098 -77c-1.33301 -64 -0.666016 -127.667 2.00098 -191s6.33398 -126.833 11.001 -190.5s9.66699 -127.167 15 -190.5s10.333 -127 15 -191c-1.33301 -22 -7.66602 -38.667 -18.999 -50s-24 -17.166 -38 -17.499
s-27.167 4.66699 -39.5 15s-19.833 26.166 -22.5 47.499c7.33301 128.667 11.5 256.167 12.5 382.5s-3.5 253.833 -13.5 382.5c-0.666992 12 -1.83398 29.833 -3.50098 53.5s-3.5 48.334 -5.5 74.001l-6 74c-2 23.667 -3.33301 41.5 -4 53.5
c-0.666992 10 -1.83398 20.333 -3.50098 31s-2.83398 21.334 -3.50098 32.001c-1.33301 7.33301 -2 15 -2 23c0 2.66699 0.333008 5.33398 1 8.00098c0 10 2 20 6 30c12.667 21.333 28 33.5 46 36.5s33.333 -0.833008 46 -11.5c8.66699 -3.33301 16.667 -7.66602 24 -12.999
l39 -55c13.333 -18 25.666 -37 36.999 -57c36 -64.667 68.667 -130.167 98 -196.5l89 -200.5l111.5 -241l110.5 -242l88 222.5l88 223.5l47 127.5l47.5 126c16.333 41.667 33.666 82.834 51.999 123.501s39.166 80.667 62.499 120c1.33301 3.33301 3.5 5.66602 6.5 6.99902
s5.5 3 7.5 5l21.5 18l21.5 18c-0.666992 3.33301 -1 7 -1 11v11z" />
    <glyph glyph-name="N" unicode="N" 
d="M128 7c-1.33301 -22 -7.66602 -38.6768 -18.999 -50.0098s-24 -17 -38 -17h-1c-14 0 -26.667 5 -38 15c-12.667 10 -20.334 25.667 -23.001 47c4.66699 45.333 11.334 90.333 20.001 135l25.5 134.5c8.33301 45 15.333 90 21 135s7.5 90.167 5.5 135.5
c-1.33301 46 -5 92 -11 138s-12.833 92 -20.5 138s-16 91.667 -25 137s-17.167 90.666 -24.5 135.999c4.66699 21.333 13.834 36.833 27.501 46.5s27.834 12.834 42.501 9.50098c16.667 1.33301 33.334 -4 50.001 -16c47.333 -56 93 -113.167 137 -171.5l130.5 -176.5
l128.5 -178l131 -177c32.667 -44 66.667 -86 102 -126l109 -119c6 124 9 247 9 369s-3.66699 245 -11 369c-0.666992 13.333 -2 29.833 -4 49.5s-3.66699 40.334 -5 62.001s-1.66602 43.834 -0.999023 66.501s3.16699 44 7.5 64s10.833 38 19.5 54s20.667 28.333 36 37
c11.333 4.66699 22 7 32 7c7.33301 0 14.333 -1.33301 21 -4c14.667 -6 25.167 -15.167 31.5 -27.5s7.5 -26.166 3.5 -41.499s-15 -28.666 -33 -39.999c-1.33301 -3.33301 -2.5 -7 -3.5 -11s-2.16699 -9.66699 -3.5 -17c-2 -9.33301 -3 -19 -3 -29s-2.33301 -19.667 -7 -29
c-0.666992 -2 -0.833984 -1.5 -0.500977 1.5s0.833008 6.5 1.5 10.5s1.16699 7.5 1.5 10.5s0.166016 3.5 -0.500977 1.5c-2.66699 -6.66699 -3.83398 -13.667 -3.50098 -21s0.166016 -14.666 -0.500977 -21.999c-0.666992 -13.333 -1.66699 -30.666 -3 -51.999
s-2.5 -43.5 -3.5 -66.5s-1.83301 -45.333 -2.5 -67s-1 -38.834 -1 -51.501c4 -119.333 9.33301 -236.666 16 -351.999s14 -232.333 22 -351c-1.33301 -11.333 -3.33301 -21 -6 -29l16.5 -16l16.5 -16c10.667 -14.667 16 -29 16 -43v-7c-2 -16 -8.33301 -28.667 -19 -38
s-24.167 -13.666 -40.5 -12.999s-32.166 8.66699 -47.499 24c-47.333 56 -92.833 113.167 -136.5 171.5l-130 175.5l-128.5 177l-130 176c-40 53.333 -81.833 104.166 -125.5 152.499l-134.5 142.5c3.33301 -69.333 6.16602 -138.5 8.49902 -207.5
s5.16602 -138.167 8.49902 -207.5l4 -68.5c1.33301 -22.333 2 -45.166 2 -68.499c0 -33.333 -1.33301 -66.666 -4 -99.999s-5.16699 -66.666 -7.5 -99.999s-4.5 -66.666 -6.5 -99.999s-2.33301 -67 -1 -101zM972 1166.99c-0.666992 -2 -1.66699 -4.33398 -3 -7.00098l2 2
c0 0.666992 0.166992 1.33398 0.5 2.00098s0.5 1.66699 0.5 3z" />
    <glyph glyph-name="O" unicode="O" horiz-adv-x="1328" 
d="M448 1207c0.666992 0 4.50684 1.16406 11.5068 3.49707s14.5 4.5 22.5 6.5s15.333 3.66699 22 5s9.66699 1.66602 9 0.999023c3.33301 1.33301 7 2.16602 11 2.49902s8 0.833008 12 1.5h4c15.333 -4.66699 27.166 -11.667 35.499 -21s13.333 -19.666 15 -30.999
s-0.5 -22.833 -6.5 -34.5s-16 -21.5 -30 -29.5c-5.33301 -2.66699 -11.833 -4.5 -19.5 -5.5s-13.834 -2.16699 -18.501 -3.5c-19.333 -4 -38.166 -8.16699 -56.499 -12.5s-36.5 -10.5 -54.5 -18.5c-44.667 -22 -71.334 -35.667 -80.001 -41s-16 -11.333 -22 -18l-82 -79.5
c-24.667 -23 -46 -46.5 -64 -70.5s-32.667 -51 -44 -81s-18.333 -67 -21 -111c-4 -59.333 3.5 -116 22.5 -170s46.167 -104.333 81.5 -151s77.166 -88.5 125.499 -125.5s99.833 -68.167 154.5 -93.5s110.834 -44.166 168.501 -56.499s113.167 -16.5 166.5 -12.5
c65.333 4.66699 126.166 16.167 182.499 34.5s103.166 44.5 140.499 78.5s62.5 76.667 75.5 128s9.16699 112.666 -11.5 183.999c-8.66699 28.667 -20 57.834 -34 87.501s-29.333 59 -46 88s-34.167 56.833 -52.5 83.5l-52.5 75c-52 70.667 -107.5 135.5 -166.5 194.5
s-121.167 116.833 -186.5 173.5c-15.333 15.333 -23.333 31.166 -24 47.499s3.66602 29.833 12.999 40.5s22 17 38 19h7c14 0 28.333 -5.33301 43 -16c45.333 -42 89.833 -85.667 133.5 -131s85.5 -92.166 125.5 -140.499s77.5 -98.5 112.5 -150.5s66.5 -106 94.5 -162
l46 -93c15.333 -31.333 25 -64 29 -98c2 -14.667 5 -29.667 9 -45s7.5 -30.5 10.5 -45.5s4.83301 -29.833 5.5 -44.5v-3c0 -13.333 -2.66699 -26.666 -8 -39.999c-9.33301 -25.333 -18 -51.166 -26 -77.499s-18.667 -51.5 -32 -75.5c-10 -18 -25.333 -35 -46 -51
s-44 -30.833 -70 -44.5s-53.5 -25.667 -82.5 -36s-57.333 -18.833 -85 -25.5s-53.5 -11.334 -77.5 -14.001c-17.333 -2 -32.333 -3 -45 -3h-16c-20.667 2 -41.667 3 -63 3s-42.5 0.5 -63.5 1.5s-41.833 3 -62.5 6s-40.667 8.5 -60 16.5c-18.667 8 -37.834 15 -57.501 21
s-39.167 12.5 -58.5 19.5s-38.166 14.833 -56.499 23.5s-35.5 19.334 -51.5 32.001c-15.333 12 -31.333 23.667 -48 35l-49 34.5c-16 11.667 -31.167 24 -45.5 37s-26.833 27.833 -37.5 44.5l-64.5 95.5c-20.333 29.667 -38 59.667 -53 90s-26.5 62.833 -34.5 97.5
c-6.66699 28 -10 58.667 -10 92c0 8.66699 0.333008 17.334 1 26.001c2.66699 48.667 11.5 95 26.5 139s34.833 85.167 59.5 123.5s53.667 74 87 107s70 62.5 110 88.5c25.333 16.667 51.666 31.5 78.999 44.5s55.666 23.167 84.999 30.5z" />
    <glyph glyph-name="P" unicode="P" horiz-adv-x="722" 
d="M58 638c-2 34.667 -5.16504 69.6602 -9.49805 104.993s-8.16602 71 -11.499 107s-5.5 71.833 -6.5 107.5s0.166992 71.167 3.5 106.5c-12 6 -20.667 14 -26 24c-5.33301 8.66699 -8 17.334 -8 26.001c0 2 0.333008 3.66699 1 5c0.666992 10.667 5 20.834 13 30.501
s19.667 17.5 35 23.5c14.667 2 28.667 5.33301 42 10s26.666 9 39.999 13s27 6.66699 41 8h8c11.333 0 23 -2 35 -6l97 -33c32 -10.667 64 -22 96 -34c22 -8 44.667 -21 68 -39s46 -39.333 68 -64s42.833 -51.667 62.5 -81s36.5 -59 50.5 -89s24.667 -59.333 32 -88
c5.33301 -21.333 8 -41.333 8 -60c0 -6.66699 -0.333008 -13.334 -1 -20.001c-1.33301 -12.667 -1.83301 -25.667 -1.5 -39s0.166016 -26.5 -0.500977 -39.5s-2.16699 -25.667 -4.5 -38s-6.83301 -23.833 -13.5 -34.5l-38.5 -61.5
c-9.66699 -15.667 -18.334 -28.667 -26.001 -39s-15.334 -18.666 -23.001 -24.999s-17.334 -12.666 -29.001 -18.999s-26.667 -13.333 -45 -21l-69.5 -30.5c-16 -7.33301 -32.833 -11.666 -50.5 -12.999s-35.834 -1.16602 -54.501 0.500977s-37.334 3.83398 -56.001 6.50098
s-37 4 -55 4c-21.333 2.66699 -37.166 10.167 -47.499 22.5s-15.333 25.5 -15 39.5s6.16602 26.667 17.499 38s28 17.666 50 18.999c28 -2.66699 55 -6.33398 81 -11.001s51.333 -7.5 76 -8.5s49 1.16699 73 6.5s48.333 17 73 35c26.667 19.333 47.334 42 62.001 68
s24.167 53.333 28.5 82s4.33301 58.334 0 89.001s-12 60.334 -23 89.001s-24.833 55.667 -41.5 81s-35 47.666 -55 66.999c-19.333 19.333 -40.666 37 -63.999 53s-47.666 29.667 -72.999 41c-28.667 12.667 -58.5 21.5 -89.5 26.5s-62.167 10.833 -93.5 17.5
c-3.33301 1.33301 -7.83301 1.33301 -13.5 0s-12.167 -3.33301 -19.5 -6c-8.66699 -25.333 -15.167 -51.5 -19.5 -78.5s-7.33301 -54.167 -9 -81.5s-2.66699 -54.833 -3 -82.5s-0.833008 -54.834 -1.5 -81.501c-0.666992 -65.333 1.5 -129.666 6.5 -192.999l15.5 -193
c4.66699 -54 9 -107.5 13 -160.5s9.33301 -106.5 16 -160.5c-1.33301 -22 -7.66602 -38.667 -18.999 -50s-24 -17 -38 -17h-1c-14 0 -26.667 5 -38 15c-12.667 10 -20.334 25.667 -23.001 47c0 45.333 1.5 90.333 4.5 135s5.16699 89.334 6.5 134.001
c1.33301 52.667 1.33301 105.334 0 158.001s-3.66602 105 -6.99902 157z" />
    <glyph glyph-name="Q" unicode="Q" horiz-adv-x="1065" 
d="M483 1164c6.66699 1.33301 12.3389 1.99609 17.0059 1.99609h3c18 -5.33301 31.333 -13.833 40 -25.5s12.834 -23.834 12.501 -36.501s-5.33301 -24.5 -15 -35.5s-23.834 -18.5 -42.501 -22.5c-28 -5.33301 -55.833 -10.166 -83.5 -14.499s-54.5 -13.5 -80.5 -27.5
c-30 -16 -59.167 -33.667 -87.5 -53s-53.166 -42 -74.499 -68c-27.333 -33.333 -47.333 -69.5 -60 -108.5s-20.167 -79.167 -22.5 -120.5s-0.333008 -82.833 6 -124.5s15.166 -81.834 26.499 -120.501c7.33301 -26.667 15.833 -53.667 25.5 -81s21.167 -54.666 34.5 -81.999
l80 90.5l79 90.5c2 2 6 6.33301 12 13l19 21l19 20.5l12 12.5c25.333 21.333 51.333 42 78 62l79 61c11.333 9.33301 22 14 32 14s21 -4 33 -12c6.66699 -6.66699 14 -13.167 22 -19.5s15.333 -13 22 -20s12 -14.5 16 -22.5s5.66699 -17.333 5 -28
c-2.66699 -30 -4.83398 -59.667 -6.50098 -89s-5.16699 -58.666 -10.5 -87.999c-7.33301 -42.667 -16.5 -84.834 -27.5 -126.501s-21.167 -83.5 -30.5 -125.5l-11.5 -48l-11.5 -49c58.667 14.667 111.167 42 157.5 82s85.333 86.667 117 140s55.334 110.333 71.001 171
s21.834 119 18.501 175c-3.33301 64.667 -15.333 127.5 -36 188.5s-48.167 118.333 -82.5 172s-74.666 102.667 -120.999 147s-97.5 82.166 -153.5 113.499c-14.667 8.66699 -28 15.834 -40 21.501s-23.833 10.834 -35.5 15.501s-24 9.16699 -37 13.5s-27.5 9.5 -43.5 15.5
c-20 9.33301 -32.833 21.666 -38.5 36.999s-6 29.5 -1 42.5s14.833 23.167 29.5 30.5c8 4 17 6 27 6c8 0 16.667 -1.33301 26 -4c68 -28.667 128.833 -59.667 182.5 -93s102.167 -71 145.5 -113s81.833 -89.667 115.5 -143s64.5 -114.333 92.5 -183
c8 -20 14.5 -40.667 19.5 -62s9.16699 -43 12.5 -65s6.33301 -44 9 -66s6 -44 10 -66c2 -12.667 3 -25 3 -37c0 -7.33301 -0.333008 -14.666 -1 -21.999c-2 -20 -5.5 -39.833 -10.5 -59.5s-10.333 -39.334 -16 -59.001s-10.167 -39.5 -13.5 -59.5
c-6.66699 -38 -19.834 -75.167 -39.501 -111.5s-43.834 -67.5 -72.501 -93.5l-144 -132c-22.667 -20 -48.334 -35.667 -77.001 -47s-59 -19 -91 -23c-6.66699 -29.333 -12.167 -50.833 -16.5 -64.5s-8 -24.167 -11 -31.5s-5.66699 -14.166 -8 -20.499
s-4.83301 -16.833 -7.5 -31.5c-2 -11.333 -2 -22.666 0 -33.999s3.33301 -22.666 4 -33.999c6.66699 -1.33301 13 -2.66602 19 -3.99902l18 -4c16.667 4 34.167 10.667 52.5 20s36.166 19.833 53.499 31.5s33.666 23.667 48.999 36s28.666 23.5 39.999 33.5h1
c17.333 19.333 36.166 38 56.499 56l61.5 54c14.667 6 29.334 9.16699 44.001 9.5s27 -1.16699 37 -4.5s16.833 -8.66602 20.5 -15.999s2.16699 -15.333 -4.5 -24l-61 -49l-61 -49c-20.667 -16 -42.334 -31.667 -65.001 -47s-47 -30.333 -73 -45
c-7.33301 -4 -16.833 -8.83301 -28.5 -14.5s-24.334 -11.167 -38.001 -16.5s-27.5 -10 -41.5 -14s-27 -6 -39 -6h-5c-14.667 0 -28.667 2.33301 -42 7c-14.667 5.33301 -29.667 9.66602 -45 12.999c-16.667 4 -26.334 10.667 -29.001 20c0.666992 14 0.166992 28 -1.5 42
s-0.833984 28 2.49902 42c5.33301 21.333 13 42 23 62s19.333 40.333 28 61c1.33301 4 1.83301 5.83301 1.5 5.5l-2 -2c-1 -1 -1.66699 -0.666992 -2 1s0.5 6.5 2.5 14.5c-24 0 -47.5 1.83301 -70.5 5.5s-44.5 8.16699 -64.5 13.5
c-43.333 12.667 -80.166 32.5 -110.499 59.5s-56.833 57.5 -79.5 91.5s-43 69.833 -61 107.5s-36 73.5 -54 107.5c-8 15.333 -14.333 32 -19 50s-9.66699 35 -15 51c-12 44 -21 89 -27 135c-4.66699 30 -7 60 -7 90c0 16 0.666992 32 2 48
c3.33301 45.333 12 89.833 26 133.5s35.333 84.5 64 122.5c24.667 32.667 51.834 61 81.501 85s61 44.5 94 61.5s67.5 31.167 103.5 42.5s73.333 21 112 29v-1zM247.005 138.996c16.667 -22 34.666 -42.333 53.999 -61s40.333 -34.5 63 -47.5s47.167 -22.833 73.5 -29.5
s54.5 -9.33398 84.5 -8.00098l42.5 182c13.667 60.667 24.834 122.334 33.501 185.001c3.33301 26.667 5.33301 53.167 6 79.5s1.66699 52.833 3 79.5l-6 6c-2 2 -4.33301 3.66699 -7 5l-61 -52c-20.667 -17.333 -40.667 -35.333 -60 -54
c-18 -16.667 -35.333 -36.167 -52 -58.5l-50.5 -70c-17 -24.333 -36.5 -49.833 -58.5 -76.5z" />
    <glyph glyph-name="R" unicode="R" horiz-adv-x="981" 
d="M22 742c0.666992 20.667 -0.333984 44 -3.00098 70s-5.16699 52.833 -7.5 80.5s-3.83301 55 -4.5 82s1.33301 52.5 6 76.5c-8 10 -12 22 -12 36v6c1.33301 16.667 10.666 32.334 27.999 47.001c24.667 13.333 44 24.166 58 32.499s25.833 14.833 35.5 19.5
s18 8.16699 25 10.5s15.667 3.83301 26 4.5s23.666 1.16699 39.999 1.5s38.166 1.16602 65.499 2.49902h9c20.667 0 41 -4 61 -12c22 -9.33301 44.333 -17.666 67 -24.999c25.333 -8 50.833 -20.833 76.5 -38.5s49.334 -38.667 71.001 -63s40.834 -51 57.501 -80
s29.167 -58.833 37.5 -89.5s11.5 -61.334 9.5 -92.001s-10.667 -59.334 -26 -86.001c-25.333 -44 -54.333 -82.333 -87 -115c11.333 -18 22.333 -39.5 33 -64.5s20.667 -50 30 -75s17.5 -48.167 24.5 -69.5s12.833 -37.333 17.5 -48l38 -82.5
c13.333 -27.667 28 -54.834 44 -81.501s33.5 -52 52.5 -76s40.167 -46 63.5 -66c12.667 -10 26 -18.5 40 -25.5s27.667 -14.833 41 -23.5c11.333 -14.667 17 -29 17 -43v-1c-0.666992 -14.667 -5 -26.834 -13 -36.501s-19 -15.834 -33 -18.501c-4 -0.666992 -8 -1 -12 -1
c-10.667 0 -22.667 3 -36 9c-14 12 -28.5 23.5 -43.5 34.5s-27.833 24.167 -38.5 39.5c-29.333 44 -55.833 90.333 -79.5 139l-70 146.5c-23 49 -47.5 97 -73.5 144s-56 90.5 -90 130.5h-3c-69.333 -38.667 -151 -56 -245 -52c-21.333 2.66699 -37.166 10.167 -47.499 22.5
s-15.333 25.5 -15 39.5s6.16602 26.667 17.499 38s28 17.666 50 18.999c32 -4.66699 63 -6.16699 93 -4.5s59 6.83398 87 15.501c4 10.667 11.333 19.834 22 27.501s24.667 12.167 42 13.5c1.33301 0 3.33301 -0.166992 6 -0.5s5.66699 -0.833008 9 -1.5
c37.333 26 68.666 61 93.999 105c8.66699 14.667 14.834 30.334 18.501 47.001s4.83398 33 3.50098 49c-1.33301 29.333 -8.66602 57.166 -21.999 83.499s-31 50.333 -53 72s-47 40.5 -75 56.5s-57 28.167 -87 36.5s-60 12.5 -90 12.5s-58 -5.33301 -84 -16
c-8 -3.33301 -15.333 -7.16602 -22 -11.499s-13.667 -9.16602 -21 -14.499c-0.666992 -4 -1.5 -8.16699 -2.5 -12.5s-2.5 -8.5 -4.5 -12.5c-1.33301 -4.66699 -4 -10.167 -8 -16.5s-6.66699 -12.166 -8 -17.499c-2 -9.33301 -3.33301 -19.166 -4 -29.499
s-2.66699 -20.5 -6 -30.5c-0.666992 -2.66699 -0.833984 -1.83398 -0.500977 2.49902s0.833008 9.5 1.5 15.5s1.33398 11.167 2.00098 15.5s0.666992 5.16602 0 2.49902c-4.66699 -38 -8.33398 -76 -11.001 -114s-4.66699 -76 -6 -114c-2 -58 -2.33301 -116.167 -1 -174.5
s3.33301 -116.666 6 -174.999s5.5 -116.666 8.5 -174.999s5.5 -116.5 7.5 -174.5c-1.33301 -22 -7.66602 -38.667 -18.999 -50s-24 -17.166 -38 -17.499s-27.167 4.66699 -39.5 15s-19.833 26.166 -22.5 47.499c3.33301 114 7 227.167 11 339.5s7.66699 225.5 11 339.5z" />
    <glyph glyph-name="S" unicode="S" horiz-adv-x="863" 
d="M534 1200c-0.666992 0 -0.99707 -0.333008 -0.99707 -1c15.333 -2 27.833 -7.33301 37.5 -16s15.5 -18.834 17.5 -30.501s0 -23.5 -6 -35.5s-16.333 -22.333 -31 -31c-10 -3.33301 -21.167 -4.66602 -33.5 -3.99902s-24.833 2.33398 -37.5 5.00098
s-25.167 5.83398 -37.5 9.50098s-23.5 6.5 -33.5 8.5l-83 19.5c-28 6.33301 -56.333 8.83301 -85 7.5c-14 -0.666992 -27.333 -2.83398 -40 -6.50098s-23.834 -9.33398 -33.501 -17.001s-17.167 -17.334 -22.5 -29.001s-7.33301 -25.5 -6 -41.5
c2.66699 -38.667 14.667 -74.834 36 -108.501s47 -65.167 77 -94.5s61.5 -56.666 94.5 -81.999l90.5 -71l81 -66.5l98.5 -83.5c33 -29.333 63.333 -59 91 -89s47.5 -57.333 59.5 -82l27.5 -59l26.5 -60c9.33301 -20 14 -41.5 14 -64.5s1 -45.833 3 -68.5v-7
c0 -13.333 -3 -26.666 -9 -39.999c-8 -15.333 -14.667 -30.666 -20 -45.999c-9.33301 -25.333 -25.333 -44.5 -48 -57.5s-47.667 -21.833 -75 -26.5c-24 -4 -48 -6 -72 -6h-10c-28 0.666992 -51.667 1.66699 -71 3s-38.666 4.66602 -57.999 9.99902s-38.333 11.333 -57 18
c-45.333 15.333 -86.333 34 -123 56s-71 46.5 -103 73.5s-62.833 56 -92.5 87l-90.5 96.5c-6 13.333 -9 25.333 -9 36c0 4 0.333008 8 1 12c2.66699 14 8.83398 25 18.501 33s21.667 12.167 36 12.5s29.166 -5.16699 44.499 -16.5l93 -109c30 -34.667 62 -66.5 96 -95.5
s71.167 -54.5 111.5 -76.5s86.833 -38.667 139.5 -50c40 -8.66699 75.833 -11.5 107.5 -8.5s57.334 12.667 77.001 29s32.5 39.5 38.5 69.5s3.33301 67.333 -8 112c-10.667 43.333 -27.334 82.666 -50.001 117.999s-49.334 69 -80.001 101
c-16.667 17.333 -34.334 33.833 -53.001 49.5l-57 46.5c-20 16.667 -40.333 32.667 -61 48l-63 47l-87.5 67.5c-27 21 -52.833 42.5 -77.5 64.5s-48.667 45.333 -72 70s-46.666 52.667 -69.999 84c-11.333 15.333 -18.666 32.833 -21.999 52.5
s-7.66602 38.834 -12.999 57.501c-2 6 -2.66699 13.167 -2 21.5s1.66699 16.666 3 24.999s2.66602 15.833 3.99902 22.5l3 15c3.33301 20.667 10.666 38.334 21.999 53.001s25 27 41 37s33.5 18 52.5 24s37.5 10.333 55.5 13c16 2.66699 32 4 48 4
c18 0 36.333 -1.66699 55 -5l101 -18c11.333 -1.33301 23.166 -2.83301 35.499 -4.5s24.166 -3.83398 35.499 -6.50098c2.66699 -0.666992 6.16699 -1.16699 10.5 -1.5l12.5 -1c4 -0.333008 7 -0.666016 9 -0.999023s1.66699 -0.833008 -1 -1.5z" />
    <glyph glyph-name="T" unicode="T" horiz-adv-x="1052" 
d="M994 1239c18 -12.667 28.6621 -26.9971 31.9951 -42.9971c0.666992 -4.66699 1 -9.33398 1 -14.001c0 -10 -2.33301 -19.333 -7 -28c-7.33301 -12 -18.666 -20.333 -33.999 -25s-33 -2.33398 -53 6.99902c-10 6 -27.333 11.167 -52 15.5s-51.334 7.83301 -80.001 10.5
s-56.167 4.83398 -82.5 6.50098s-45.833 2.83398 -58.5 3.50098v-9c-23.333 -66.667 -42.5 -131 -57.5 -193s-26.5 -124 -34.5 -186s-12.833 -124.833 -14.5 -188.5s-0.5 -130.834 3.5 -201.501c3.33301 -48 6 -96.167 8 -144.5s6 -96.5 12 -144.5
c1.33301 -9.33301 3.5 -19 6.5 -29s5.33301 -20 7 -30s2.33398 -20 2.00098 -30s-3.16602 -19.667 -8.49902 -29c-12 -15.333 -24.667 -24 -38 -26c-3.33301 -0.666992 -6.33301 -1 -9 -1c-11.333 0 -23.666 3 -36.999 9c-6.66699 4 -12.667 8.83301 -18 14.5l-16 16.5
c-7.33301 16 -10.166 30.667 -8.49902 44s6.5 24.333 14.5 33c-0.666992 9.33301 -1.16699 18.666 -1.5 27.999s-0.166016 18.666 0.500977 27.999l6 129c2 42.667 3.66699 85.667 5 129c3.33301 110.667 6 221.5 8 332.5s10 221.833 24 332.5
c3.33301 20.667 7.33301 41 12 61s9.66699 40 15 60c-80 1.33301 -159.833 0 -239.5 -4s-159.167 -8.33301 -238.5 -13c-21.333 2.66699 -37 10.334 -47 23.001c-10.667 11.333 -16 24 -16 38l1 1c0 14 5.66699 26.667 17 38s28 17.666 50 18.999
c80.667 -7.33301 160.334 -15.5 239.001 -24.5s158.667 -13.5 240 -13.5c36 0.666992 71.5 2 106.5 4s70.167 3.66699 105.5 5c18.667 0.666992 38.167 2 58.5 4s40.666 3.16699 60.999 3.5s40.333 -0.666992 60 -3s38.167 -7.5 55.5 -15.5z" />
    <glyph glyph-name="U" unicode="U" horiz-adv-x="916" 
d="M4 1135c4 21.333 12.6699 36.666 26.0029 45.999c11.333 8 23 12 35 12h6c14 -2 26.333 -9.16699 37 -21.5s15.334 -29.5 14.001 -51.5c-10 -82 -13.333 -169.167 -10 -261.5s13.166 -184.333 29.499 -276s39.5 -179.5 69.5 -263.5s67 -158.333 111 -223
c8 -12 17.5 -22.667 28.5 -32s22.667 -18.166 35 -26.499l37.5 -24.5c12.667 -8 24.667 -16.333 36 -25c10.667 2 21.667 3.16699 33 3.5s22.666 1 33.999 2s22.166 2.83301 32.499 5.5s20.166 7 29.499 13c28.667 19.333 54.167 44.333 76.5 75s41.333 63.5 57 98.5
s28.5 70.5 38.5 106.5s17.333 69.333 22 100c7.33301 49.333 12.333 94 15 134s3.16699 77.667 1.5 113s-5.16699 69.333 -10.5 102s-11.833 66.5 -19.5 101.5s-16.334 72.5 -26.001 112.5s-19.834 85 -30.501 135c-2.66699 21.333 0.833008 38.5 10.5 51.5
s21.334 21 35.001 24s27.5 0.333008 41.5 -8s24 -22.833 30 -43.5c4.66699 -28 10.834 -58.5 18.501 -91.5s15 -67.167 22 -102.5s12.833 -71 17.5 -107c2.66699 -22.667 4 -45 4 -67c0 -13.333 -0.666992 -26.333 -2 -39c-2 -27.333 -3.5 -54.833 -4.5 -82.5
s-2.33301 -55.334 -4 -83.001s-3.83398 -55.167 -6.50098 -82.5s-6.66699 -54.666 -12 -81.999c-8 -38.667 -15.833 -72.334 -23.5 -101.001s-16.167 -54.167 -25.5 -76.5s-19.666 -42.666 -30.999 -60.999s-24.5 -36.5 -39.5 -54.5s-32 -37 -51 -57l-64.5 -69
c-2 -2 -5 -3.66699 -9 -5s-7.66699 -2.33301 -11 -3c-33.333 -5.33301 -65.666 -11 -96.999 -17c-19.333 -3.33301 -38.333 -5 -57 -5c-11.333 0 -22.333 0.666992 -33 2c-28.667 3.33301 -55.834 14 -81.501 32s-49.5 48.667 -71.5 92
c-12.667 24.667 -26.167 48.834 -40.5 72.501l-42 71.5c-13.667 24 -26.334 48.5 -38.001 73.5s-20.5 50.833 -26.5 77.5c-15.333 68 -31.166 134.333 -47.499 199s-30.5 129.167 -42.5 193.5s-20.667 129.166 -26 194.499c-2.66699 32 -4 64.667 -4 98s1.33301 67 4 101z
" />
    <glyph glyph-name="V" unicode="V" horiz-adv-x="1059" 
d="M16 1060c-2 16 -2.83008 33.1631 -2.49707 51.4961s-2.16699 35.833 -7.5 52.5c-1.33301 2.66699 -2 4.33398 -2 5.00098c-0.666992 0.666992 -1 1.66699 -1 3c-2 4 -3 9 -3 15v4c3.33301 16 9.33301 28.833 18 38.5s18.667 15.834 30 18.501
c3.33301 0.666992 6.66602 1 9.99902 1c7.33301 0 15.333 -2 24 -6c12 -5.33301 22.667 -14.666 32 -27.999c8 -19.333 11.667 -39.833 11 -61.5s-0.333984 -43.167 0.999023 -64.5c1.33301 -40.667 3.83301 -81.334 7.5 -122.001s6.5 -81.667 8.5 -123l14 -245.5
c4.66699 -81 13.667 -162.5 27 -244.5c5.33301 -34 12.333 -67.5 21 -100.5s16 -66.5 22 -100.5l72.5 108.5l72.5 109.5c85.333 127.333 173.5 251.333 264.5 372s188.833 237.334 293.5 350.001c16.667 14 33.167 20.5 49.5 19.5s29.333 -6.33301 39 -16
s15.167 -22.5 16.5 -38.5v-4c0 -15.333 -6.66699 -30.666 -20 -45.999c-110.667 -105.333 -213.5 -214 -308.5 -326s-187.167 -229.333 -276.5 -352l-45 -62l-44 -62c-2.66699 -4 -8.5 -14 -17.5 -30s-19.833 -33.167 -32.5 -51.5s-26.167 -35.333 -40.5 -51
s-27.833 -24.5 -40.5 -26.5c-8 1.33301 -14.333 3.5 -19 6.5s-8.66699 8.16699 -12 15.5c-32 111.333 -57.333 222.833 -76 334.5s-34.334 224.834 -47.001 339.501c-6 53.333 -12.333 106.166 -19 158.499z" />
    <glyph glyph-name="W" unicode="W" horiz-adv-x="1449" 
d="M1321 1207c14.667 12 29.3203 18.3311 43.9873 18.998s27 -2.5 37 -9.5s17 -17.5 21 -31.5c0.666992 -4.66699 1 -10 1 -16c0 -10 -2 -20.667 -6 -32c-12 -14.667 -24.5 -29 -37.5 -43s-25.167 -29 -36.5 -45c-42.667 -63.333 -78.334 -131.5 -107.001 -204.5
s-53.667 -147.833 -75 -224.5s-40.5 -153.667 -57.5 -231s-35.167 -152.333 -54.5 -225c-6.66699 -24.667 -14.5 -48.667 -23.5 -72l-26.5 -71c-12 -14.667 -25 -23.667 -39 -27s-26.667 -2.16602 -38 3.50098s-20.166 15.167 -26.499 28.5s-7.5 29.333 -3.5 48
c2.66699 5.33301 5 10.333 7 15s4.33301 9.66699 7 15c-25.333 43.333 -47.666 86.5 -66.999 129.5s-36.833 86.5 -52.5 130.5s-30.5 88.667 -44.5 134l-44 140c-1.33301 2.66699 -2.16602 5.33398 -2.49902 8.00098s-1.16602 5.66699 -2.49902 9
c-11.333 -26 -23.5 -51.5 -36.5 -76.5l-39 -74.5l-38 -75.5c-12.333 -25.667 -23.5 -51.834 -33.5 -78.501c-16.667 -46.667 -28.167 -91.834 -34.5 -135.501s-10.166 -89.5 -11.499 -137.5c1.33301 -1.33301 2.33301 -3 3 -5s1.66699 -3.66699 3 -5
c13.333 -2.66699 24.833 -10.167 34.5 -22.5s13.834 -28.5 12.501 -48.5l-6 -18c-5.33301 -12.667 -12 -22.667 -20 -30s-16.667 -12 -26 -14c-3.33301 -0.666992 -6.66602 -1 -9.99902 -1c-6 0 -12.333 1.33301 -19 4c-10.667 3.33301 -21 9.66602 -31 18.999
c-7.33301 10.667 -13.833 21.667 -19.5 33s-10.834 22.666 -15.501 33.999c-13.333 10.667 -21.333 27 -24 49l3 15c-1.33301 2.66699 -2.66602 6.66699 -3.99902 12c-16 52 -31.167 104 -45.5 156s-30.833 103.333 -49.5 154c-20 57.333 -42.333 114 -67 170l-73.5 167.5
l-70.5 168c-22.667 56.333 -42.334 113.833 -59.001 172.5c-5.33301 18 -8.66602 36.167 -9.99902 54.5s-3.66602 36.5 -6.99902 54.5c4 18.667 11.333 32.834 22 42.501s22.334 14.667 35.001 15s24.834 -3.83398 36.501 -12.501s20.167 -22 25.5 -40
c4 -77.333 15.167 -152 33.5 -224s40.5 -142.833 66.5 -212.5s54.167 -138.834 84.5 -207.501l88.5 -209c5.33301 -13.333 10.833 -28.333 16.5 -45s12.167 -34.667 19.5 -54c2 4.66699 3.83301 9.5 5.5 14.5s3.83398 10.167 6.50098 15.5
c16.667 40.667 34.5 80.667 53.5 120s36.667 79 53 119s30.333 80.667 42 122s18.834 84.333 21.501 129c2.66699 12 6.83398 22 12.501 30s12.167 14.333 19.5 19c-19.333 63.333 -37.166 126 -53.499 188s-29.5 128.333 -39.5 199c4 18.667 11.333 32.834 22 42.501
s22.334 14.834 35.001 15.501h1c12.667 0 24.667 -4.33301 36 -13s19.666 -22 24.999 -40c1.33301 -69.333 6.33301 -138.333 15 -207s20.667 -137 36 -205c5.33301 -10 8.33301 -22.333 9 -37c23.333 -95.333 54.333 -187.5 93 -276.5s86 -173.833 142 -254.5
c28.667 70 54.667 140.333 78 211s45.666 142.334 66.999 215.001l31.5 111.5l32 110.5c11 36.667 22.833 73 35.5 109s26.667 72 42 108c8.66699 20.667 19.834 39.834 33.501 57.501s26.5 35.834 38.5 54.501z" />
    <glyph glyph-name="X" unicode="X" horiz-adv-x="987" 
d="M27 1159c-8 17.333 -10.665 33.166 -7.99805 47.499s8.83398 25.5 18.501 33.5s21.834 12.333 36.501 13h1c14 0 28.333 -5.66699 43 -17c58.667 -84.667 113.667 -170.334 165 -257.001l157 -261l209 256.5l208 258.5c15.333 13.333 30.666 20 45.999 20h4
c16 -1.33301 28.833 -6.83301 38.5 -16.5s15.167 -22.5 16.5 -38.5v-4c0 -15.333 -6.66699 -30.666 -20 -45.999l-120.5 -118l-120 -119l-117 -121.5c-38.333 -41 -75.5 -83.167 -111.5 -126.5l84.5 -132.5c28.333 -43.667 58.166 -86.834 89.499 -129.501l47 -63
l53.5 -68.5l55.5 -67c18.667 -21.667 37 -40.834 55 -57.501c12 -11.333 24.833 -21.5 38.5 -30.5s27.167 -18.5 40.5 -28.5c11.333 -15.333 16.833 -30.166 16.5 -44.499s-4.5 -26.333 -12.5 -36s-19 -15.834 -33 -18.501c-4 -0.666992 -8 -1 -12 -1
c-10.667 0 -22.667 3 -36 9c-14.667 13.333 -29.667 26 -45 38s-29 25.667 -41 41c-57.333 76 -110 153.833 -158 233.5l-148 240.5l-19.5 30l-19.5 31c-64 -82 -121.833 -167 -173.5 -255s-100.5 -178.667 -146.5 -272c-12 -14.667 -25 -23.667 -39 -27
s-26.667 -2.16602 -38 3.50098s-20 15.167 -26 28.5c-4 8 -6 17.333 -6 28c0 6 0.666992 12.667 2 20l51 80.5l45.5 69.5l47 68.5l56.5 76.5l46 59.5l31.5 40l24.5 29l23 26.5l27.5 32l39.5 46c-56.667 86.667 -115.334 171.334 -176.001 254.001
s-124.334 163.334 -191.001 242.001z" />
    <glyph glyph-name="Y" unicode="Y" horiz-adv-x="1073" 
d="M465 39c-6.66699 -18 -16.001 -30.6689 -28.001 -38.002c-10.667 -6 -21 -9 -31 -9h-6c-12.667 1.33301 -24 7.33301 -34 18s-16.333 25.334 -19 44.001c4.66699 31.333 8 62.5 10 93.5s7.66699 61.5 17 91.5l23.5 78c7.66699 26 16.167 51.667 25.5 77l19 47.5l17 40.5
c-13.333 2 -26.666 9.66699 -39.999 23c-37.333 52 -72.166 105.667 -104.499 161s-66.833 109.333 -103.5 162c-18 26 -36.833 51.333 -56.5 76s-38.667 49.667 -57 75s-35.833 51.333 -52.5 78s-31.334 55 -44.001 85c-0.666992 4 -1 8 -1 12c0 13.333 3 25 9 35
c6.66699 12.667 16 21.334 28 26.001s24.833 4.66699 38.5 0s26.167 -14.667 37.5 -30c7.33301 -36.667 18 -72.5 32 -107.5s30.167 -69 48.5 -102s38.166 -65 59.499 -96l66 -91.5l2 -1l93 -104.5c30 -34.333 62 -67.833 96 -100.5
c0 -0.666992 0.333008 -1.33398 1 -2.00098l28 46l34 56c58 97.333 118.667 191.666 182 282.999l190 277c14.667 12 29.334 18.333 44.001 19h4c12.667 0 23.667 -3 33 -9c10 -7.33301 17 -18 21 -32c0.666992 -4.66699 1 -10 1 -16c0 -10 -2 -20.667 -6 -32l-159.5 -184
c-54.333 -61.333 -106 -124.666 -155 -189.999s-93.167 -133.5 -132.5 -204.5s-70.333 -146.5 -93 -226.5c-10 -36 -17.333 -66.333 -22 -91s-7.83398 -48.167 -9.50098 -70.5s-2.66699 -46.166 -3 -71.499s-1.16602 -57 -2.49902 -95z" />
    <glyph glyph-name="Z" unicode="Z" horiz-adv-x="1096" 
d="M63 1116c-21.333 2.66699 -37.0107 10.3369 -47.0107 23.0039c-10.667 11.333 -16 24 -16 38l1 1c0 14 5.66699 26.667 17 38s28 17.666 50 18.999l212 -13.5c70.667 -4.33301 141.334 -5.83301 212.001 -4.5c72.667 2 144.334 4.83301 215.001 8.5
s142.334 4.16699 215.001 1.5c18 -5.33301 31.333 -13.833 40 -25.5s12.834 -23.834 12.501 -36.501s-5.33301 -24.334 -15 -35.001s-23.834 -18 -42.501 -22c-5.33301 1.33301 -10.5 2.33301 -15.5 3s-10.167 1.66699 -15.5 3c-5.33301 -6.66699 -11.5 -12.5 -18.5 -17.5
s-15.5 -10.167 -25.5 -15.5c-8.66699 -5.33301 -15.667 -9.33301 -21 -12s-9 -4.66699 -11 -6l-58.5 -42c-19.667 -14 -38.834 -28.667 -57.501 -44c-40 -32.667 -78.333 -68 -115 -106c-44.667 -46 -85 -93.833 -121 -143.5s-68.833 -101 -98.5 -154
s-56.5 -107.333 -80.5 -163s-46.333 -112.5 -67 -170.5c25.333 9.33301 51.5 18.5 78.5 27.5s53 17.167 78 24.5l69 20.5c21 6.33301 38.5 11.833 52.5 16.5l253 86.5c83.333 29.667 168.333 55.834 255 78.501c22 1.33301 39.167 -3.33398 51.5 -14.001s19.5 -23 21.5 -37
v-6c0 -12 -4 -23.667 -12 -35c-9.33301 -13.333 -24.666 -22 -45.999 -26c-114 -14 -226.667 -34 -338 -60s-219.666 -62.667 -324.999 -110l-40.5 -19.5c-15.667 -7.66699 -32 -16.167 -49 -25.5l-51 -29c-17 -10 -31.833 -20 -44.5 -30l-5.5 -19
c-1.66699 -6 -3.5 -12 -5.5 -18c-6 -16 -14.167 -27.667 -24.5 -35s-21.166 -11.333 -32.499 -12c-10 -5.33301 -19.667 -8 -29 -8c-3.33301 0 -6.66602 0.333008 -9.99902 1c-12.667 2.66699 -23.167 8.5 -31.5 17.5s-13.166 20.667 -14.499 35s2.66699 29.5 12 45.5
c6.66699 8.66699 13 17.334 19 26.001s12.667 17 20 25c0.666992 1.33301 2.33398 3.33301 5.00098 6c60.667 136 127.834 268.167 201.501 396.5s157.834 249.833 252.501 364.5l56 66c15.333 17.333 30.333 33.333 45 48s30.334 29.5 47.001 44.5l61 55.5
c-40 5.33301 -80.167 9.66602 -120.5 12.999s-80.833 4.66602 -121.5 3.99902c-70.667 -1.33301 -141.5 -6.83301 -212.5 -16.5s-142.167 -18.167 -213.5 -25.5z" />
    <glyph glyph-name="bracketleft" unicode="[" horiz-adv-x="548" 
d="M99 -443c-8 1.33301 -14.334 2.66895 -19.001 4.00195c-6.66699 -0.666992 -13 -1 -19 -1c-10.667 0 -19.667 1.66699 -27 5c-12.667 5.33301 -23 16.666 -31 33.999c-2 6.66699 -3 12.667 -3 18c0 2 0.333008 3.66699 1 5c0.666992 6.66699 1.66699 13.667 3 21l2 1
c0.666992 0.666992 1.66699 3.66699 3 9s2.5 11.333 3.5 18s1.83301 12.667 2.5 18l1 8l12 92.5c3.33301 25.667 6.16602 50.167 8.49902 73.5s4.33301 47.833 6 73.5s3.5 56.5 5.5 92.5l3 70c1.33301 30.667 2.33301 63 3 97s1.16699 66.5 1.5 97.5s0.5 54.167 0.5 69.5
c-2 84 -6.33301 167.5 -13 250.5s-12.667 166.167 -18 249.5c-0.666992 9.33301 -2.33398 24 -5.00098 44s-4.83398 42.167 -6.50098 66.5s-2.33398 49.166 -2.00098 74.499s3.5 48.333 9.5 69c-5.33301 6.66699 -8.66602 14.334 -9.99902 23.001s-0.5 17.334 2.5 26.001
s8.16699 16.667 15.5 24s17 13.333 29 18c25.333 2 50.833 1 76.5 -3s51.167 -5.33301 76.5 -4c31.333 2 61.833 7.66699 91.5 17s58.5 20.666 86.5 33.999h4c16.667 0 31 -3.66699 43 -11c12 -8 19.833 -18 23.5 -30s2.66699 -24.833 -3 -38.5s-16.5 -25.167 -32.5 -34.5
c-8 0 -16 -0.833008 -24 -2.5s-16 -2.5 -24 -2.5c-16.667 0 -33 1.16699 -49 3.5s-32.333 3.16602 -49 2.49902c-23.333 0 -45.666 -2 -66.999 -6s-42.666 -9.33301 -63.999 -16c-1.33301 -12.667 -7 -24 -17 -34c0 -3.33301 -0.166992 -7.16602 -0.5 -11.499
s-0.5 -8.5 -0.5 -12.5s-0.166992 -7.16699 -0.5 -9.5s-0.833008 -2.83301 -1.5 -1.5c-0.666992 -3.33301 -1 -7.66602 -1 -12.999c-1.33301 -28 -2.5 -56 -3.5 -84s-2.16699 -56 -3.5 -84c-0.666992 -32.667 -1.16699 -62.334 -1.5 -89.001s-0.5 -52.667 -0.5 -78v-78.5
v-89.5c0 -111.333 2 -222 6 -332s6 -221 6 -333c0.666992 -29.333 0.333984 -58.333 -0.999023 -87l-4 -88c8 -5.33301 14 -12.333 18 -21c22 -1.33301 43.833 -1 65.5 1s42.167 6.33301 61.5 13c32 11.333 62.667 24.833 92 40.5s59 30.5 89 44.5
c18.667 0.666992 34.167 -3 46.5 -11s20.5 -18 24.5 -30c1.33301 -4.66699 2 -9.33398 2 -14.001c0 -8 -1.66699 -16 -5 -24c-6 -14 -17 -25.667 -33 -35c-34 -2.66699 -67.167 -6 -99.5 -10s-65.166 -10.333 -98.499 -19c-16 -4.66699 -31.5 -11 -46.5 -19
s-30.5 -15 -46.5 -21c-30 -10.667 -61.667 -20.667 -95 -30zM10.999 -331.997c0 -1.33301 -1.33301 -5.33398 -4 -12.001c1.33301 4 2.33301 7.83301 3 11.5s1 3.83398 1 0.500977zM4.99902 -351.998c0 -2 -0.333008 -3.66699 -1 -5c0 1.33301 0.333008 3 1 5z
M4.99902 -349.998l2 4c-0.666992 -0.666992 -1 -2 -1 -4h-1z" />
    <glyph glyph-name="backslash" unicode="\" horiz-adv-x="578" 
d="M1 1220c-0.666992 4.66699 -0.99707 9.00391 -0.99707 13.0039c0 15.333 4 28.333 12 39c9.33301 12.667 21 20.667 35 24c3.33301 0.666992 6.66602 1 9.99902 1c10.667 0 21 -3 31 -9c14 -8.66699 24 -23.334 30 -44.001c8.66699 -65.333 21.667 -128.333 39 -189
s36.666 -122.667 57.999 -186c22.667 -68.667 47.667 -136.5 75 -203.5l84.5 -199.5l88 -197.5l86.5 -198.5c2.66699 -9.33301 4 -18 4 -26c0 -10 -2 -19 -6 -27c-7.33301 -14.667 -17.333 -24.334 -30 -29.001c-6.66699 -2.66699 -13.334 -4 -20.001 -4
c-7.33301 0 -15 1.66699 -23 5c-15.333 5.33301 -27.666 18 -36.999 38c-31.333 107.333 -64.5 213.333 -99.5 318s-73.5 208.667 -115.5 312c-18.667 46.667 -38.334 93 -59.001 139l-61 138.5c-20 46.333 -38.667 93.166 -56 140.499s-32.333 95.666 -45 144.999z" />
    <glyph glyph-name="bracketright" unicode="]" horiz-adv-x="398" 
d="M320 1209c20 -6 34.3369 -15.666 43.0039 -28.999c6.66699 -10 10 -20.333 10 -31c0 -2.66699 -0.333008 -5.66699 -1 -9c-5.33301 -114 -11.5 -227.167 -18.5 -339.5s-13.167 -225.5 -18.5 -339.5c-5.33301 -112 -8.66602 -223.167 -9.99902 -333.5l-4 -332.5v-2
c2 -21.333 2.33301 -42.5 1 -63.5s0.666992 -41.833 6 -62.5c-0.666992 -14 -3.83398 -26 -9.50098 -36s-12.667 -17.667 -21 -23s-17.166 -8 -26.499 -8c-10 0 -19.667 2.66699 -29 8c-7.33301 0 -14 1 -20 3l-19 6.5c-6.66699 2.33301 -13.834 5 -21.501 8
s-16.834 5.5 -27.501 7.5c-17.333 4 -35.666 4.66699 -54.999 2s-38 -5 -56 -7c-17.333 8 -29.333 18.667 -36 32c-4.66699 9.33301 -7 18.333 -7 27c0 4 0.333008 7.66699 1 11c2.66699 12 9.66699 22.667 21 32s26.333 14.333 45 15l31.5 -19.5
c10.333 -6.33301 20.833 -12 31.5 -17s21.667 -8.5 33 -10.5s23.666 -2 36.999 0c0.666992 2 1.5 3.83301 2.5 5.5s2.16699 3.16699 3.5 4.5v1c0.666992 35.333 3.66699 70.666 9 105.999s10 69.333 14 102c5.33301 45.333 10.333 90.5 15 135.5s8.66699 90.167 12 135.5
c11.333 154 15.666 306.833 12.999 458.5s-7.66699 304.167 -15 457.5c-1.33301 0.666992 -3 1 -5 1c-5.33301 0.666992 -11 0.5 -17 -0.5s-12 -0.833008 -18 0.5c-2 0.666992 -1.5 1.16699 1.5 1.5s6.16699 0.5 9.5 0.5s6.33301 0.166992 9 0.5s3 0.5 1 0.5
c-14 1.33301 -27.5 -0.166992 -40.5 -4.5s-25.5 -10.166 -37.5 -17.499s-23.5 -15.833 -34.5 -25.5l-31.5 -27.5c-18.667 -4 -34.667 -2.83301 -48 3.5s-22.833 15.166 -28.5 26.499s-6.83398 24 -3.50098 38s12.333 27 27 39c23.333 4.66699 47.166 8.5 71.499 11.5
s48.166 7.16699 71.499 12.5c15.333 4 30 9.83301 44 17.5s28.667 13.167 44 16.5c8.66699 2.66699 17.334 4.5 26.001 5.5s17 2.83301 25 5.5z" />
    <glyph glyph-name="asciicircum" unicode="^" horiz-adv-x="770" 
d="M349 1100c-31.333 -34 -58.335 -67.6699 -81.002 -101.003s-43 -67.833 -61 -103.5s-34.667 -73 -50 -112l-48 -126.5c-12 -14.667 -25 -23.667 -39 -27s-26.667 -2.16602 -38 3.50098s-20 15.167 -26 28.5c-4 8 -6 17.333 -6 28c0 6 0.666992 12.667 2 20l87.5 126
c29.667 42 56.834 85.333 81.501 130c10 18.667 19.333 37.834 28 57.501l26.5 58.5c9 19.333 38.833 67.666 89.5 144.999c11.333 4.66699 22 7.33398 32 8.00098h3c0.666992 -0.666992 1.33398 -1.66699 2.00098 -3l5 1c52 -43.333 81 -73.333 87 -90
s11.333 -33.5 16 -50.5s9.66699 -32.167 15 -45.5c14 -35.333 29.167 -68 45.5 -98s34.666 -58.167 54.999 -84.5s43 -51.166 68 -74.499s53.167 -46 84.5 -68c11.333 -14.667 17 -29 17 -43v-1c-0.666992 -14.667 -5 -26.834 -13 -36.501s-19 -15.834 -33 -18.501
c-4 -0.666992 -8 -1 -12 -1c-10.667 0 -22.667 3 -36 9l-28.5 29.5c-9.66699 9.66699 -18.5 19.834 -26.5 30.501c-22 30 -41.5 60.833 -58.5 92.5l-52.5 95.5l-64.5 112.5c-22.333 37.667 -46.166 73.834 -71.499 108.501z" />
    <glyph glyph-name="underscore" unicode="_" horiz-adv-x="1052" 
d="M974 -237c18 -5.33301 31.334 -13.665 40.001 -24.998s13 -23 13 -35v-2c-0.666992 -12.667 -5.83398 -24.334 -15.501 -35.001s-23.834 -18 -42.501 -22c-75.333 8 -150.333 18.167 -225 30.5s-150 22.166 -226 29.499c-75.333 7.33301 -151 10.5 -227 9.5
s-152 -3.83301 -228 -8.5c-21.333 2.66699 -37 10.334 -47 23.001c-10.667 12 -16 24.667 -16 38c0 0.666992 0.333008 1 1 1c0 14 5.66699 26.667 17 38s28 17.666 50 18.999c76.667 -7.33301 152.334 -17.333 227.001 -30s150 -22.667 226 -30
c75.333 -7.33301 150.833 -10.333 226.5 -9s151.167 4 226.5 8z" />
    <glyph glyph-name="grave" unicode="`" horiz-adv-x="360" 
d="M1 1247c-0.666992 4.66699 -0.998047 9.00098 -0.998047 13.001c0 15.333 4 28.333 12 39c9.33301 12.667 21 20.667 35 24c3.33301 0.666992 6.66602 1 9.99902 1c10.667 0 21 -3 31 -9c14 -8.66699 24 -23.334 30 -44.001
c0.666992 -13.333 1.83398 -24.5 3.50098 -33.5s4 -17.667 7 -26s6.5 -17 10.5 -26s8 -20.167 12 -33.5c12 -18 24.167 -34 36.5 -48s25.166 -27.5 38.499 -40.5s27.666 -25.833 42.999 -38.5l50 -42c10.667 -14.667 16 -29 16 -43v-7c-2 -16 -8.33301 -28.667 -19 -38
c-10 -8.66699 -22.333 -13 -37 -13h-3c-16.667 0.666992 -32.667 8.66699 -48 24l-48 88.5c-16 29.667 -34.333 57.5 -55 83.5c-12 15.333 -23.667 29.333 -35 42l-33 38c-10.667 12.667 -20.667 26.167 -30 40.5s-18 30.5 -26 48.5z" />
    <glyph glyph-name="a" unicode="a" horiz-adv-x="666" 
d="M494 765c11.333 -15.333 16.8291 -30.1602 16.4961 -44.4932s-4.5 -26.333 -12.5 -36s-19.167 -15.834 -33.5 -18.501s-30.166 0 -47.499 8c-3.33301 2.66699 -6.66602 5.5 -9.99902 8.5s-7 5.5 -11 7.5c-8 4.66699 -18.5 5.16699 -31.5 1.5
s-26.167 -9.33398 -39.5 -17.001s-26 -16 -38 -25s-20.667 -15.833 -26 -20.5c-4.66699 -4 -8.66699 -8.66699 -12 -14s-7.66602 -9 -12.999 -11h-1c-41.333 -50.667 -76.5 -106 -105.5 -166s-46.833 -123 -53.5 -189l-8 -76
c-2.66699 -25.333 -3.33398 -50.666 -2.00098 -75.999c0.666992 -6 3.66699 -11 9 -15s9.66602 -8.66699 12.999 -14c7.33301 3.33301 15 5.83301 23 7.5s15 5.16699 21 10.5c42 34 81.667 74.5 119 121.5s72 96.833 104 149.5s61 106.5 87 161.5s48.667 107.5 68 157.5
c8.66699 14.667 19 24.834 31 30.501s23.667 7.66699 35 6s21.333 -6.5 30 -14.5s14 -18.333 16 -31c2.66699 -3.33301 4.83398 -7 6.50098 -11s3.16699 -8.33301 4.5 -13c-2 -15.333 -3.66699 -30.5 -5 -45.5s-3.66602 -30.167 -6.99902 -45.5
c-7.33301 -36.667 -15.166 -73.334 -23.499 -110.001s-14.833 -73.334 -19.5 -110.001s-5.83398 -73.334 -3.50098 -110.001s11.166 -73.334 26.499 -110.001c5.33301 -11.333 11.166 -22.833 17.499 -34.5l18.5 -34.5c2.66699 -9.33301 4 -18 4 -26c0 -10 -2 -19 -6 -27
c-7.33301 -14.667 -17.333 -24.334 -30 -29.001c-6.66699 -2.66699 -13.334 -4 -20.001 -4c-7.33301 0 -15 1.66699 -23 5c-15.333 5.33301 -27.666 18 -36.999 38c-8.66699 34.667 -14.5 64.667 -17.5 90s-4.5 49.833 -4.5 73.5s1.16699 48.167 3.5 73.5
s4.83301 55.333 7.5 90c1.33301 20 2.5 40.167 3.5 60.5s1.5 40.833 1.5 61.5c-35.333 -56 -73 -109.833 -113 -161.5l-125 -155.5c-16 -20 -33.333 -40.167 -52 -60.5s-40 -35.166 -64 -44.499c-12.667 -5.33301 -25.167 -10 -37.5 -14l-38.5 -13
c-8 -1.33301 -14.667 -1.16602 -20 0.500977s-11 5.16699 -17 10.5c-7.33301 11.333 -15.666 22.333 -24.999 33s-16 22.667 -20 36c-4 14.667 -6.33301 29.667 -7 45v18c0 9.33301 0.333008 18.666 1 27.999c0.666992 15.333 1.83398 30.5 3.50098 45.5
s2.83398 30.167 3.50098 45.5c1.33301 35.333 6.5 71.666 15.5 108.999s20.833 74 35.5 110s31.5 70.667 50.5 104s39.5 63.666 61.5 90.999c14 18 31.833 36.667 53.5 56s45.167 35.666 70.5 48.999s51.333 22.333 78 27c7.33301 0.666992 14.333 1 21 1
c19.333 0 38 -4.33301 56 -13c8 -4 15.5 -8.83301 22.5 -14.5s14.167 -11.167 21.5 -16.5z" />
    <glyph glyph-name="b" unicode="b" horiz-adv-x="716" 
d="M145 181c0 -4 -0.667969 -8.66895 -2.00098 -14.002c14.667 -15.333 28.834 -31.166 42.501 -47.499s28 -32 43 -47s31 -28.333 48 -40s36.5 -19.834 58.5 -24.501c12.667 -2.66699 26.334 -3.16699 41.001 -1.5s29 4.5 43 8.5s27.333 8.83301 40 14.5
s23.667 11.167 33 16.5c31.333 18.667 57.166 43.334 77.499 74.001s34.5 63.167 42.5 97.5s10 68.333 6 102s-14.333 63 -31 88s-39.834 43.667 -69.501 56s-66.167 13.833 -109.5 4.5c-28 -6 -55 -15.167 -81 -27.5s-52.333 -23.833 -79 -34.5
c-21.333 -4 -39 -1.83301 -53 6.5s-23 19.166 -27 32.499s-2.5 27.166 4.5 41.499s20.5 25.5 40.5 33.5c28.667 8 56.834 16.5 84.501 25.5s55.167 15.833 82.5 20.5s55 5.83398 83 3.50098s56.667 -10.833 86 -25.5c46 -22.667 80.333 -53.334 103 -92.001
s35.667 -80.334 39 -125.001v-23c0 -37.333 -5.66699 -75.333 -17 -114c-14.667 -46.667 -36 -89.167 -64 -127.5s-61.333 -70.333 -100 -96s-81 -40.167 -127 -43.5h-25c-21.333 0 -41 1.66699 -59 5c-25.333 5.33301 -49.333 13.666 -72 24.999s-44.334 25.333 -65.001 42
s-42 35.334 -64 56.001l-27 27c-6.66699 6.66699 -16.334 13.667 -29.001 21c-14 13.333 -22 27.333 -24 42s0.666992 27.667 8 39l12 161c4 53.333 5.33301 107 4 161c-2 92.667 -7.33301 184 -16 274l-26 272c4 18.667 11.333 32.834 22 42.501
s22.334 14.834 35.001 15.501h1c12.667 0 24.667 -4.33301 36 -13s19.666 -22 24.999 -40c-3.33301 -54.667 -7.16602 -109.5 -11.499 -164.5s-5.83301 -110.167 -4.5 -165.5c2.66699 -91.333 8.33398 -181.666 17.001 -270.999s17 -179.666 25 -270.999z" />
    <glyph glyph-name="c" unicode="c" horiz-adv-x="814" 
d="M445 636c-9.33301 12 -13.334 24.6689 -12.001 38.002c-16.667 28 -38 52.333 -64 73s-53.667 34.167 -83 40.5s-58.5 4.5 -87.5 -5.5s-54.5 -31.333 -76.5 -64c-10.667 -15.333 -19 -31.5 -25 -48.5s-10.667 -34.5 -14 -52.5s-6.16602 -36 -8.49902 -54
s-4.83301 -35.667 -7.5 -53v1c-1.33301 -23.333 -2.5 -49 -3.5 -77s-0.833008 -56.333 0.5 -85s4.66602 -57 9.99902 -85s13.5 -53.5 24.5 -76.5s25.333 -42.667 43 -59s39.834 -27.5 66.501 -33.5c13.333 -3.33301 27.666 -5.16602 42.999 -5.49902s30.666 0 45.999 1
s30.5 2.66699 45.5 5s28.833 4.83301 41.5 7.5c56.667 11.333 112.334 25.166 167.001 41.499s109.667 31.166 165 44.499c18.667 0.666992 34.167 -3 46.5 -11s20.5 -18 24.5 -30c1.33301 -4.66699 2 -9.66699 2 -15c0 -7.33301 -1.66699 -15 -5 -23
c-6 -14 -17 -25.667 -33 -35c-38 -6.66699 -81.667 -15.334 -131 -26.001s-100 -20 -152 -28c-52 -8.66699 -90.333 -13.334 -115 -14.001l-37 -2l-37 -1l-51 2l-14 4l-15 4l-14 4l-27 8c-18 5.33301 -38 18.666 -60 39.999c-22.667 21.333 -40.5 46 -53.5 74
s-22.167 58.333 -27.5 91s-9 65.334 -11 98.001c-1.33301 18.667 -2.5 40.334 -3.5 65.001s-1.5 50.667 -1.5 78c-0.666992 5.33301 -1 10.666 -1 15.999c0 22.667 0.666992 45.334 2 68.001c1.33301 28 4 55.167 8 81.5s9.83301 50.833 17.5 73.5s17.834 41.667 30.501 57
c7.33301 9.33301 14.833 18.333 22.5 27l23.5 26c24 26 54 44 90 54c24.667 6.66699 50 10 76 10c11.333 0 23 -0.666992 35 -2c37.333 -4.66699 73 -15.667 107 -33s60.667 -39.333 80 -66l22.5 -30c7.66699 -10 15.167 -20.333 22.5 -31c4 -4 6 -7.66699 6 -11
c2 -2.66699 4 -5 6 -7s3.66699 -4.66699 5 -8c7.33301 -26 4.33301 -46.667 -9 -62s-26.5 -23.333 -39.5 -24s-24 0.333008 -33 3s-18.167 10 -27.5 22zM68.999 537.002c0 2 -0.166992 1.66699 -0.5 -1s-0.5 -6 -0.5 -10c0 2 0.166992 3.83301 0.5 5.5s0.5 3.5 0.5 5.5z" />
    <glyph glyph-name="d" unicode="d" horiz-adv-x="632" 
d="M364 528c0.666992 -0.666992 4.00195 -2.33301 10.002 -5s26.333 -12.334 61 -29.001c14 -1.33301 25.833 -7.16602 35.5 -17.499s14.167 -23.833 13.5 -40.5c4 14 7.5 26.833 10.5 38.5s5.16699 21.167 6.5 28.5c4.66699 32 8.66699 65.333 12 100
c5.33301 51.333 7.5 102.5 6.5 153.5s-3.66699 101.833 -8 152.5s-9.5 101.334 -15.5 152.001s-11.333 101.334 -16 152.001c4 18.667 11.333 32.834 22 42.501s22.334 14.834 35.001 15.501h1c12.667 0 24.667 -4.33301 36 -13s19.666 -22 24.999 -40
c-4 -68.667 -7.33301 -136.834 -10 -204.501s-4.33398 -135.834 -5.00098 -204.501c0 -53.333 0.833008 -106.166 2.5 -158.499s1.83398 -105.166 0.500977 -158.499l-2 -57c-0.666992 -18.667 -2 -37.667 -4 -57c0 -1.33301 -0.166992 -2.33301 -0.5 -3
s-0.5 -1.33398 -0.5 -2.00098c11.333 -7.33301 19.333 -18 24 -32c2 -5.33301 3 -11.333 3 -18c0 -9.33301 -2.33301 -20 -7 -32c-26.667 -38 -54.334 -70 -83.001 -96s-59 -48.667 -91 -68s-66.333 -36.333 -103 -51s-76.334 -29 -119.001 -43c-10.667 -4 -22 -6 -34 -6
c-7.33301 0 -15 1 -23 3c-20.667 3.33301 -40.334 10.166 -59.001 20.499s-34.834 23.333 -48.501 39s-22.5 33.167 -26.5 52.5c-7.33301 36 -11.666 67 -12.999 93v15c0 20 2 39.333 6 58c5.33301 22.667 14.5 45.5 27.5 68.5s35.167 49.833 66.5 80.5
s51.833 48.167 61.5 52.5s18.834 9.16602 27.501 14.499c8.66699 4.66699 21 8 37 10s32.833 3 50.5 3s34.667 -0.833008 51 -2.5s28.5 -3.83398 36.5 -6.50098zM440.002 270.001l11.9941 13.499c4 4.33301 7.66699 8.83301 11 13.5c-1.33301 15.333 -0.5 32.166 2.5 50.499
s6.5 36.833 10.5 55.5l-1 -2c-9.33301 -12 -19.166 -19.833 -29.499 -23.5s-23.166 -4.5 -38.499 -2.5c-15.333 4 -30.666 11.333 -45.999 22l-42 30c-19.333 2 -78 -7.66699 -176 -29c-16 -12.667 -31.333 -32.167 -46 -58.5s-25.167 -54 -31.5 -83s-6.5 -56.667 -0.5 -83
s21.667 -45.833 47 -58.5c22.667 -11.333 47.334 -14.666 74.001 -9.99902s53.334 13.834 80.001 27.501s52.334 30 77.001 49s45.667 37.167 63 54.5z" />
    <glyph glyph-name="e" unicode="e" horiz-adv-x="950" 
d="M542 573c-0.666992 -13.333 -3.6582 -25.0059 -8.99121 -35.0059c-0.666992 -9.33301 -4 -18.833 -10 -28.5s-15 -18.167 -27 -25.5c-21.333 -2.66699 -40.833 -6.16699 -58.5 -10.5s-34.5 -10 -50.5 -17s-31.833 -15.5 -47.5 -25.5s-32.167 -21.333 -49.5 -34
c-2 -1.33301 -6 -4.5 -12 -9.5l-19 -15.5l-20 -15.5c-6.66699 -5 -11.334 -8.16699 -14.001 -9.5c-7.33301 -3.33301 -14.833 -5.83301 -22.5 -7.5s-15.167 -4.16699 -22.5 -7.5c-18.667 2.66699 -33.334 9 -44.001 19s-16.834 21.167 -18.501 33.5s1.33301 24.666 9 36.999
s20.5 21.833 38.5 28.5c5.33301 0 11.333 1 18 3s11.667 1 15 -3v-3c24 4.66699 44.833 11.334 62.5 20.001s34.5 18.5 50.5 29.5s32 23 48 36s34 26.167 54 39.5c1.33301 1.33301 3 2.5 5 3.5s3.66699 2.16699 5 3.5c0.666992 16.667 0.166992 33.334 -1.5 50.001
s-5.83398 33 -12.501 49c-10 24 -26 44.333 -48 61s-45.833 27.834 -71.5 33.501s-51.334 5.33398 -77.001 -0.999023s-47.834 -20.5 -66.501 -42.5c-13.333 -15.333 -24.666 -32.666 -33.999 -51.999s-17 -39.333 -23 -60c-7.33301 -23.333 -12.666 -47.333 -15.999 -72
s-5.33301 -49.334 -6 -74.001c0 -25.333 1.5 -51 4.5 -77s8.5 -51.333 16.5 -76c20.667 -63.333 48.334 -110.5 83.001 -141.5s73.5 -50.5 116.5 -58.5s88.667 -6.66699 137 4s96.833 25.667 145.5 45s95.667 40.833 141 64.5l124 63.5c20.667 8 38.5 9 53.5 3
s25.5 -15.333 31.5 -28c3.33301 -7.33301 5 -15.333 5 -24c0 -6 -0.666992 -12 -2 -18c-4.66699 -16 -16.334 -29.333 -35.001 -40l-151.5 -64.5c-52.333 -23 -105.833 -42.833 -160.5 -59.5s-109.667 -27.667 -165 -33c-14 -1.33301 -27.667 -2 -41 -2
c-41.333 0 -82.333 6 -123 18c-42 12.667 -78.833 35.334 -110.5 68.001s-57.834 71.334 -78.501 116.001s-35.667 93 -45 145c-8.66699 43.333 -13 86 -13 128c0 8.66699 0.333008 17.334 1 26.001c2 50.667 10 98.167 24 142.5s34 81.5 60 111.5
c15.333 18 33.666 35 54.999 51s43.666 26.667 66.999 32c16.667 3.33301 33.667 5 51 5c12 0 24.333 -0.666992 37 -2c30 -4.66699 58.5 -13.5 85.5 -26.5s51.667 -29.833 74 -50.5s40.166 -43.667 53.499 -69c12.667 -23.333 21.167 -48 25.5 -74
s7.16602 -51.667 8.49902 -77z" />
    <glyph glyph-name="f" unicode="f" horiz-adv-x="814" 
d="M546 852c18 -5.33301 31.3301 -13.8311 39.9971 -25.498s12.834 -23.834 12.501 -36.501s-5.33301 -24.334 -15 -35.001s-23.834 -18 -42.501 -22l-107 16c-30.667 4.66699 -59 7.66699 -85 9c-3.33301 -58 -4.33301 -116.167 -3 -174.5s3 -116.833 5 -175.5
s3.66699 -117.167 5 -175.5s0.333008 -116.833 -3 -175.5c-6.66699 -18 -16 -30.667 -28 -38c-10.667 -6.66699 -21 -10 -31 -10c-2 0 -4 0.333008 -6 1c-12.667 1.33301 -24 7.33301 -34 18s-16.333 25.334 -19 44.001c8 56.667 14.333 113.5 19 170.5s8.5 114 11.5 171
s5.83301 114 8.5 171s6.33398 113.833 11.001 170.5c-30 -4.66699 -60.667 -14.334 -92 -29.001s-68.333 -37 -111 -67c-18.667 -4 -34.667 -2.83301 -48 3.5s-22.666 15.166 -27.999 26.499c-4 7.33301 -6 15 -6 23c0 4.66699 0.666992 9.66699 2 15
c3.33301 14 12.333 27 27 39l41 16c13.333 5.33301 26.666 9.66602 39.999 12.999c30.667 7.33301 60.334 12.5 89.001 15.5l89 9.5h2c1.33301 12 3 29 5 51s4.5 46.667 7.5 74s6.5 55.666 10.5 84.999s8.83301 57.333 14.5 84s12 50.5 19 71.5s14.833 36.5 23.5 46.5l40 45
l40 45c7.33301 6 13.5 10 18.5 12s12.167 3.33301 21.5 4c24 -4.66699 48.167 -8 72.5 -10s47.166 -8.33301 68.499 -19c17.333 -8 32.166 -19 44.499 -33s23.666 -28.833 33.999 -44.5s20.333 -31.667 30 -48s20.834 -30.833 33.501 -43.5c10.667 -14.667 16 -29 16 -43v-7
c-2 -16 -8.33301 -28.667 -19 -38s-24.167 -13.666 -40.5 -12.999s-32.166 8.66699 -47.499 24c-5.33301 6.66699 -12.5 18.167 -21.5 34.5l-27.5 50.5c-9.33301 17.333 -18.5 33 -27.5 47s-16.167 21.667 -21.5 23c-14 5.33301 -28.333 9.83301 -43 13.5l-44 11.5
c-10 -10 -21 -19.167 -33 -27.5s-21.333 -19.166 -28 -32.499c-13.333 -24 -24.666 -51 -33.999 -81s-17.166 -60.833 -23.499 -92.5s-11.5 -63.167 -15.5 -94.5s-7.33301 -60.666 -10 -87.999c32.667 4 65 8.16699 97 12.5z" />
    <glyph glyph-name="g" unicode="g" horiz-adv-x="797" 
d="M455 778c20.667 -6 42.1699 -14.8271 64.5029 -26.4941s43.166 -25.834 62.499 -42.501c-9.33301 17.333 -19.833 34.333 -31.5 51l-36.5 50c-8 17.333 -10.667 33.166 -8 47.499s8.83398 25.5 18.501 33.5s21.834 12.333 36.501 13h1c14 0 28.333 -5.66699 43 -17
l36.5 -53c11.667 -17.333 22.167 -36 31.5 -56c15.333 -32.667 26.666 -66.5 33.999 -101.5s10.5 -70 9.5 -105s-6.66699 -69.333 -17 -103s-25.833 -65.834 -46.5 -96.501c-9.33301 -14 -21.333 -28.5 -36 -43.5s-30.834 -29.5 -48.501 -43.5s-36.334 -26.667 -56.001 -38
s-38.834 -20 -57.501 -26c-3.33301 -10.667 -9.5 -20.167 -18.5 -28.5s-21.5 -14.166 -37.5 -17.499c-18 -2.66699 -36 -9 -54 -19s-35 -19 -51 -27c-25.333 -12 -50.833 -25 -76.5 -39s-48.5 -30.333 -68.5 -49s-35.833 -40.5 -47.5 -65.5s-16.5 -53.833 -14.5 -86.5
c2 -34 10.5 -64.5 25.5 -91.5s34.167 -50.333 57.5 -70s49.833 -35.667 79.5 -48s60.334 -21 92.001 -26s63.5 -6.66699 95.5 -5s61.667 7.16699 89 16.5c34 11.333 64.667 27.5 92 48.5s47.666 48.5 60.999 82.5c10 26 12.833 52.333 8.5 79s-14 50.834 -29 72.501
s-34 39.667 -57 54s-48.167 22.166 -75.5 23.499c-26 1.33301 -48.833 -0.5 -68.5 -5.5s-38.167 -12 -55.5 -21s-35 -19.833 -53 -32.5s-38 -25.667 -60 -39c-18.667 -4 -34.667 -2.83301 -48 3.5s-22.833 15.166 -28.5 26.499s-6.83398 24 -3.50098 38s12.333 27 27 39
l82.5 43c23.667 12.667 45.334 23.167 65.001 31.5s38.667 14.166 57 17.499s37.5 4.16602 57.5 2.49902s42.167 -6.16699 66.5 -13.5s52.5 -18 84.5 -32c17.333 -7.33301 31.666 -19.333 42.999 -36s23 -32 35 -46c12.667 -14 20.834 -30.5 24.501 -49.5
s8.16699 -37.167 13.5 -54.5c4.66699 -16 7 -32 7 -48c0 -17.333 -2.66699 -34.666 -8 -51.999c-10.667 -33.333 -27.5 -63.833 -50.5 -91.5s-50.333 -51 -82 -70s-62.834 -30.5 -93.501 -34.5c-32.667 -4.66699 -61.5 -8.5 -86.5 -11.5s-47.833 -4.5 -68.5 -4.5h-8
c-17.333 0 -34 1 -50 3c-18 2 -36.667 6.16699 -56 12.5s-40.166 15.166 -62.499 26.499s-48.166 25.333 -77.499 42c-19.333 11.333 -37 26.5 -53 45.5s-28 39.167 -36 60.5l-22 59.5c-6.66699 18.333 -11.667 36.833 -15 55.5c-2 12 -3 24.333 -3 37
c0 6.66699 0.333008 13 1 19c1.33301 18.667 6.33301 39.667 15 63c8.66699 21.333 19.834 41.166 33.501 59.499l39.5 55.5c3.33301 4.66699 11 11.667 23 21s26.5 19.666 43.5 30.999s35.5 23 55.5 35s40 23.333 60 34l-46.5 41c-11 10 -20.167 20.333 -27.5 31
s-14.166 23.5 -20.499 38.5l-26.5 62.5c-8 19.333 -12.833 40.833 -14.5 64.5s0.166016 46.167 5.49902 67.5c7.33301 29.333 14.166 54.5 20.499 75.5s13.333 39 21 54s16.5 27.667 26.5 38s22.333 19.333 37 27s32 14.834 52 21.501s44 14 72 22
c13.333 3.33301 27.666 3.5 42.999 0.5s29.333 -6.5 42 -10.5zM384.003 293.006c13.333 0.666992 25.335 -1.00098 36.002 -5.00098c18 5.33301 35.667 12.833 53 22.5s33.666 20.834 48.999 33.501s28.833 26.167 40.5 40.5s21.167 29.166 28.5 44.499s13.666 31 18.999 47
s9 32.667 11 50c-9.33301 -7.33301 -19.333 -11.166 -30 -11.499s-20.5 2 -29.5 7s-16.333 12.5 -22 22.5s-8.5 22 -8.5 36c-0.666992 6 -2.66699 12.667 -6 20c0 0.666992 -0.166992 1.16699 -0.5 1.5s-0.5 0.833008 -0.5 1.5l-6.5 10.5
c-2.33301 3.66699 -4.83301 7.16699 -7.5 10.5c-3.33301 4.66699 -7.66602 9 -12.999 13s-10.833 7.66699 -16.5 11s-11 6.66602 -16 9.99902s-9.16699 7.33301 -12.5 12h-1c-25.333 12 -50.333 19.333 -75 22s-51.667 -3.66602 -81 -18.999
c-20.667 -10.667 -37.5 -26.167 -50.5 -46.5s-22.167 -43 -27.5 -68s-7.33301 -51 -6 -78s6.16602 -52.833 14.499 -77.5s19.666 -46.834 33.999 -66.501s31.5 -34.5 51.5 -44.5c5.33301 -3.33301 11 -5.66602 17 -6.99902l18 -4c14.667 6 27.334 10 38.001 12z" />
    <glyph glyph-name="h" unicode="h" horiz-adv-x="770" 
d="M144 125c-4 -9.33301 -8.66211 -17.333 -13.9951 -24c1.33301 -3.33301 2.33301 -6.33301 3 -9s1.66699 -5.33398 3 -8.00098c-0.666992 -18.667 -5.66699 -33.667 -15 -45s-20 -18.333 -32 -21c-4 -0.666992 -7.66699 -1 -11 -1c-9.33301 0 -18.333 2.33301 -27 7
c-13.333 6.66699 -24 18.667 -32 36c-8.66699 44.667 -13.667 89.5 -15 134.5s-1.16602 90.167 0.500977 135.5s4.16699 90.666 7.5 135.999s5.33301 90.666 6 135.999c1.33301 102.667 0 204.667 -4 306s-8.66699 202.666 -14 303.999c4 18.667 11.333 32.834 22 42.501
s22.334 14.834 35.001 15.501h1c12.667 0 24.667 -4.33301 36 -13s19.666 -22 24.999 -40l-15.5 -198.5c-5 -66.333 -9.33301 -132.666 -13 -198.999s-6 -132.833 -7 -199.5s0.5 -133.334 4.5 -200.001l4 -57l4 -57c31.333 49.333 67.833 95.5 109.5 138.5l121.5 121.5
c15.333 15.333 29.833 26.833 43.5 34.5s27.5 12.834 41.5 15.501s28.5 3 43.5 1s31.5 -4.66699 49.5 -8c8.66699 -1.33301 15 -4.33301 19 -9c20.667 -22 37.667 -43.333 51 -64s24.833 -42 34.5 -64s18.5 -45 26.5 -69l27 -79c8.66699 -26 15.334 -45.167 20.001 -57.5
l13.5 -34.5c4.33301 -10.667 9.66602 -23.167 15.999 -37.5l28.5 -65.5c2.66699 -9.33301 4 -18 4 -26c0 -10 -2 -19 -6 -27c-7.33301 -14.667 -17.5 -24.5 -30.5 -29.5s-27.167 -4.66699 -42.5 1s-27.666 18.5 -36.999 38.5c-15.333 54.667 -28.833 109.667 -40.5 165
s-25.5 110 -41.5 164l-9.5 32c-3.66699 12.667 -8.33398 25.334 -14.001 38.001s-12 24.667 -19 36s-14.833 20.333 -23.5 27c-9.33301 7.33301 -18.833 11 -28.5 11s-19.334 -2 -29.001 -6s-18.834 -9.33301 -27.501 -16s-16 -13 -22 -19
c-22.667 -21.333 -46.834 -47.5 -72.501 -78.5s-49.834 -64.333 -72.501 -100s-41.834 -72.167 -57.501 -109.5s-24.834 -72.333 -27.501 -105z" />
    <glyph glyph-name="i" unicode="i" horiz-adv-x="185" 
d="M25 786c4 18.667 11.3311 32.8359 21.998 42.5029s22.334 14.667 35.001 15s24.834 -3.83398 36.501 -12.501s20.167 -22 25.5 -40c-7.33301 -63.333 -15.666 -126.666 -24.999 -189.999s-15 -127.333 -17 -192c-2 -64 2.16699 -127 12.5 -189s22.833 -124.333 37.5 -187
c-0.666992 -18.667 -5.66699 -33.667 -15 -45s-20 -18.333 -32 -21c-4 -0.666992 -7.66699 -1 -11 -1c-9.33301 0 -18.333 2.33301 -27 7c-13.333 6.66699 -24 18.667 -32 36c-0.666992 19.333 -2 38.166 -4 56.499s-3 37.166 -3 56.499c0 48 2 95.5 6 142.5
s6.66699 94.5 8 142.5c1.33301 63.333 0.166016 126.666 -3.50098 189.999s-8.16699 126.333 -13.5 189zM0.998047 1133c-0.666992 4.66699 -1.00586 9.00293 -1.00586 13.0029c0 11.333 2 21.333 6 30c0.666992 16.667 4.33398 34 11.001 52c6 14.667 14.333 24.667 25 30
c6.66699 2.66699 13.334 4 20.001 4c4 0 8 -0.333008 12 -1c10.667 -2.66699 20.834 -8.33398 30.501 -17.001s17.167 -19 22.5 -31c10 -5.33301 18.333 -13.333 25 -24c5.33301 -9.33301 8 -21 8 -35v-8c-6 -19.333 -14.667 -35.5 -26 -48.5s-23.666 -22.167 -36.999 -27.5
s-26.666 -6.33301 -39.999 -3s-24.333 11.666 -33 24.999c-3.33301 3.33301 -6.16602 7.16602 -8.49902 11.499l-8.5 15.5c-1.33301 2.66699 -2.33301 5 -3 7s-1.66699 4.33301 -3 7z" />
    <glyph glyph-name="j" unicode="j" horiz-adv-x="405" 
d="M239 806c9.33301 16 20.8291 26.8369 34.4961 32.5039s26.5 6.66699 38.5 3s22 -11.667 30 -24s11.667 -27.833 11 -46.5c-4.66699 -12.667 -9.66699 -25.334 -15 -38.001s-9.66602 -25.667 -12.999 -39c-3.33301 -17.333 -6 -41.666 -8 -72.999
s-3.83301 -63.666 -5.5 -96.999s-2.83398 -64.333 -3.50098 -93s-1.33398 -49 -2.00098 -61c-0.666992 -8 -1.16699 -23.5 -1.5 -46.5s-0.833008 -49.5 -1.5 -79.5s-1.5 -61.833 -2.5 -95.5s-2 -65.667 -3 -96s-1.83301 -57 -2.5 -80s-1.33398 -38.5 -2.00098 -46.5
c-0.666992 -12 -2 -27.5 -4 -46.5s-4.5 -39.667 -7.5 -62s-6.83301 -45.333 -11.5 -69s-10.5 -46.334 -17.5 -68.001s-15 -41.334 -24 -59.001s-19.5 -31.5 -31.5 -41.5c-16.667 -14 -35.167 -25.333 -55.5 -34s-40.166 -18.334 -59.499 -29.001
c-7.33301 -1.33301 -14 -2 -20 -2c-10.667 0 -20 2 -28 6c-13.333 6 -22.666 14.667 -27.999 26c-4 7.33301 -6 15 -6 23c0 5.33301 0.666992 10.333 2 15c3.33301 14 12.333 27 27 39c16 6.66699 32.667 12 50 16s32.333 11.667 45 23c15.333 14 28.333 33 39 57
s19.834 49.167 27.501 75.5s13.667 52.166 18 77.499l10.5 63c6.66699 46.667 11.334 86.5 14.001 119.5s4.16699 64.667 4.5 95s-0.5 62.166 -2.5 95.499s-4 73.333 -6 120l-5 103c-1.33301 26.667 -2.66602 51.5 -3.99902 74.5s-2.16602 47 -2.49902 72
s-0.5 56.833 -0.5 95.5c0 16.667 2.66699 32.667 8 48s10 31 14 47zM323.996 1255c10 -3.33301 18.3271 -6.83496 24.9941 -10.502s12 -9.16699 16 -16.5c1.33301 -2 2.83301 -4 4.5 -6s3.5 -4 5.5 -6c3.33301 -11.333 5 -22.666 5 -33.999c0 -17.333 -4 -34.333 -12 -51
c-4 -9.33301 -8.16699 -18.333 -12.5 -27s-9.83301 -17.334 -16.5 -26.001c-7.33301 -10 -15.166 -16.667 -23.499 -20s-16.666 -4.16602 -24.999 -2.49902s-16.333 5.5 -24 11.5s-14.5 13.667 -20.5 23c-7.33301 11.333 -11.666 24.5 -12.999 39.5s-0.166016 30 3.50098 45
s9.33398 29 17.001 42s16.834 23.167 27.501 30.5c7.33301 4.66699 14.5 6.83398 21.5 6.50098s14.167 0.166992 21.5 1.5z" />
    <glyph glyph-name="k" unicode="k" horiz-adv-x="643" 
d="M52 1276c15.333 12.667 30.6641 19.3311 45.9971 19.998h1c14.667 0 26.667 -4 36 -12c10 -8 16.667 -18.833 20 -32.5s1 -28.167 -7 -43.5c-1.33301 -4 -2.83301 -8.16699 -4.5 -12.5s-2.83398 -8.16602 -3.50098 -11.499c-3.33301 -16 -6.33301 -32 -9 -48
s-5.66699 -32.333 -9 -49c-4.66699 -26 -8.66699 -47.333 -12 -64s-6.16602 -32.667 -8.49902 -48s-4.66602 -31.833 -6.99902 -49.5s-5.16602 -40.5 -8.49902 -68.5c-7.33301 -65.333 -12.5 -131.333 -15.5 -198s-2.33301 -133.334 2 -200.001s12.666 -132.667 24.999 -198
s30.5 -129 54.5 -191c6 -20.667 5.33301 -38.334 -2 -53.001s-17.5 -24.5 -30.5 -29.5s-27.167 -4.66699 -42.5 1s-27.666 18.5 -36.999 38.5c-12 46.667 -20.833 91.834 -26.5 135.501s-9.5 87.167 -11.5 130.5c-1.33301 32 -2 64.333 -2 97v34
c0.666992 44 1.66699 90 3 138c1.33301 50.667 2.33301 101.334 3 152.001s1.66699 101.334 3 152.001c0 8 0.166992 22.333 0.5 43s0.833008 44.667 1.5 72s1.83398 56.166 3.50098 86.499s4 59.333 7 87s7 52.334 12 74.001s11.167 37.5 18.5 47.5zM212.998 698.997
c4 21.333 12.6699 36.667 26.0029 46s27 13.166 41 11.499s26.333 -8.66699 37 -21s15.334 -29.5 14.001 -51.5c-8.66699 -36.667 -23.334 -70.167 -44.001 -100.5s-43.667 -59.166 -69 -86.499c11.333 -13.333 22.666 -28.833 33.999 -46.5s23.666 -35.167 36.999 -52.5
c49.333 -62.667 99.833 -123.5 151.5 -182.5s105.5 -116.833 161.5 -173.5c10.667 -14.667 16 -29 16 -43v-7c-2 -16 -8.33301 -28.667 -19 -38c-10 -8.66699 -22.333 -13 -37 -13h-3c-16.667 0.666992 -32.667 8.66699 -48 24c-30 41.333 -58.333 82.666 -85 123.999
l-81.5 123c-27.667 40.667 -56.5 80.334 -86.5 119.001s-63 76 -99 112c-9.33301 -4 -18.166 -4.83301 -26.499 -2.5s-15.166 6.5 -20.499 12.5s-8.33301 13.5 -9 22.5s1.66602 18.5 6.99902 28.5v1l2 2l34.5 42.5c11.667 15 22.167 30.5 31.5 46.5s17.166 32.667 23.499 50
s10.166 35 11.499 53z" />
    <glyph glyph-name="l" unicode="l" horiz-adv-x="192" 
d="M53 1198c10.667 18.667 23.999 30.334 39.999 35.001c6 1.33301 12 2 18 2c8.66699 0 16.667 -1.66699 24 -5c12.667 -6 22 -16.333 28 -31c2.66699 -6.66699 4 -13.667 4 -21c0 -10 -2.33301 -21 -7 -33c-6 -10 -12.5 -19.833 -19.5 -29.5s-12.5 -20.167 -16.5 -31.5
c-7.33301 -19.333 -13.5 -40.833 -18.5 -64.5s-9.33301 -47.667 -13 -72s-6.66699 -48.5 -9 -72.5s-4.5 -45.333 -6.5 -64c-9.33301 -122 -7.16602 -243.5 6.50098 -364.5s33.167 -241.5 58.5 -361.5c-0.666992 -18.667 -5.66699 -33.667 -15 -45s-20 -18.333 -32 -21
c-4 -0.666992 -7.66699 -1 -11 -1c-9.33301 0 -18.333 2.33301 -27 7c-13.333 6.66699 -24 18.667 -32 36c-8 98.667 -12.167 196.667 -12.5 294s-1.5 195.333 -3.5 294c-0.666992 27.333 -2.16699 62.666 -4.5 105.999s-3.83301 88.333 -4.5 135v28c0 36.667 1 72 3 106
c2.66699 42 9 75.667 19 101l15.5 37z" />
    <glyph glyph-name="m" unicode="m" horiz-adv-x="1337" 
d="M55 842c16.667 0.666992 30.665 -1.99512 41.998 -7.99512s19.5 -13.833 24.5 -23.5s7 -20.167 6 -31.5s-5.16699 -21.333 -12.5 -30c-1.33301 -44.667 -3.66602 -89 -6.99902 -133s-2.66602 -88.667 2.00098 -134c4 -42.667 8.83301 -84.667 14.5 -126
s11.834 -83 18.501 -125l24 55.5c8 18.333 16.667 36.5 26 54.5l86.5 172c28.333 57.333 59.5 113 93.5 167c8 12.667 16.667 27.834 26 45.501s19.833 35.667 31.5 54s24.167 35.833 37.5 52.5s27.666 30.5 42.999 41.5s31.666 18.167 48.999 21.5
c4 0.666992 8.33301 1 13 1c13.333 0 27.333 -3.66699 42 -11c9.33301 -4 18.166 -12.333 26.499 -25s16 -26.667 23 -42s13 -30.666 18 -45.999l11.5 -36c17.333 -52 33.666 -104.333 48.999 -157l46 -158l21 -70c6.66699 -23.333 15.334 -46.333 26.001 -69
c18 26 32.833 54.167 44.5 84.5s24.167 59.833 37.5 88.5c10 20.667 19.833 39.334 29.5 56.001s21.167 33.667 34.5 51c4.66699 6.66699 10.667 13.5 18 20.5s15.166 13.167 23.499 18.5s17 10 26 14s17.833 6.33301 26.5 7c14 2 27.667 0 41 -6
c6.66699 0 13 -1.66699 19 -5c9.33301 -4.66699 18 -11.834 26 -21.501s14.667 -19.167 20 -28.5c12.667 -24 22.667 -49 30 -75l22 -78c10 -13.333 16 -22.833 18 -28.5s3.5 -10.334 4.5 -14.001s3.66699 -7.83398 8 -12.501s14.5 -12.334 30.5 -23.001
c11.333 -14.667 17 -29 17 -43v-1c-0.666992 -14.667 -5 -26.834 -13 -36.501s-19.167 -15.834 -33.5 -18.501s-30.166 0 -47.499 8c-23.333 18.667 -41 37.167 -53 55.5s-21.5 37.333 -28.5 57s-12.667 40.667 -17 63s-10.833 46.833 -19.5 73.5c-1.33301 4 -2.5 8 -3.5 12
s-2.66699 7.66699 -5 11s-5.83301 6.66602 -10.5 9.99902c-16 -6 -30.333 -17 -43 -33s-24.5 -34.833 -35.5 -56.5s-21.833 -44.834 -32.5 -69.501s-22.167 -48 -34.5 -70s-25.833 -41.667 -40.5 -59s-31.667 -29.666 -51 -36.999c-10 -2 -18.167 -2.16699 -24.5 -0.5
s-13.166 6.16699 -20.499 13.5c-14 14.667 -25.333 31.167 -34 49.5s-15.834 37.5 -21.501 57.5s-10.5 40 -14.5 60s-8.66699 39.333 -14 58l-30 113.5c-10 37.667 -21 75.5 -33 113.5c-2 6.66699 -5.83301 18.5 -11.5 35.5s-12.334 34.667 -20.001 53
s-15.667 34.833 -24 49.5s-16.166 23 -23.499 25c-19.333 -16 -37.833 -35.833 -55.5 -59.5s-34.667 -49.334 -51 -77.001s-31.833 -56.834 -46.5 -87.501l-42 -91l-37.5 -87.5l-32.5 -77.5c-13.333 -31.333 -26 -62.666 -38 -93.999l-37 -95l-14 -32.5l-15 -32.5
c-1.33301 -6.66699 -3.33301 -13.334 -6 -20.001s-6.66699 -13.334 -12 -20.001c-1.33301 -0.666992 -2.16602 -1.33398 -2.49902 -2.00098s-1.16602 -1.33398 -2.49902 -2.00098c-5.33301 -2.66699 -9 -4.66699 -11 -6c0 -3.33301 0.333008 -5.66602 1 -6.99902
c-1.33301 -22 -7.66602 -38.667 -18.999 -50s-24 -17 -38 -17h-1c-14 0 -26.667 5 -38 15c-12.667 10 -20.334 25.667 -23.001 47c3.33301 45.333 6 90.333 8 135s1.33301 89.334 -2 134.001c-5.33301 74.667 -13.333 148.334 -24 221.001s-20.667 146 -30 220
c-2.66699 10.667 -4 20.667 -4 30c-0 12.667 2.33301 24.334 7 35.001c7.33301 18.667 23.333 31.667 48 39z" />
    <glyph glyph-name="n" unicode="n" horiz-adv-x="701" 
d="M75 832c14.667 12 29.3242 18.3379 43.9912 19.0049h4c12.667 0 23.667 -3 33 -9c10 -7.33301 16.833 -18 20.5 -32s2.16699 -30 -4.5 -48c-18.667 -26 -35 -59.833 -49 -101.5s-24.833 -86.834 -32.5 -135.501s-12.167 -98 -13.5 -148s1.33398 -109 8.00098 -177
c10.667 57.333 22.667 101.5 36 132.5s28 61.833 44 92.5l26.5 53.5c9 18.333 19.167 35.166 30.5 50.499l34 46.5c12 16.333 24.333 31.666 37 45.999s26 26.833 40 37.5s28.833 17.667 44.5 21s31.834 2 48.501 -4s34.334 -18.333 53.001 -37
c14.667 -14.667 28.834 -35.667 42.501 -63s26.834 -58.166 39.501 -92.499s24.667 -70.666 36 -108.999s21.833 -75.666 31.5 -111.999l26.5 -101c8 -31 15 -56.5 21 -76.5c-0.666992 -18.667 -5.66699 -33.667 -15 -45s-20 -18.333 -32 -21
c-4 -0.666992 -7.66699 -1 -11 -1c-9.33301 0 -18.333 2.33301 -27 7c-13.333 6.66699 -24 18.667 -32 36c-6.66699 36 -13.167 78.5 -19.5 127.5s-14.166 98.667 -23.499 149s-20.666 98.333 -33.999 144s-30.333 82.834 -51 111.501
c-4 5.33301 -9.33301 9.66602 -16 12.999s-12.667 6.66602 -18 9.99902c-7.33301 -3.33301 -14.833 -6 -22.5 -8s-14.167 -6 -19.5 -12c-19.333 -22.667 -36.833 -47.167 -52.5 -73.5s-29.834 -53.5 -42.501 -81.5s-24.334 -56.5 -35.001 -85.5s-16.167 -44.5 -16.5 -46.5
s-0.833008 -4.33301 -1.5 -7l-20 -93c-6.66699 -30 -11.667 -61 -15 -93c-1.33301 -56 -13.5 -86.333 -36.5 -91s-38.833 -6.33398 -47.5 -5.00098c-14.667 1.33301 -26 4.83301 -34 10.5s-15.333 15.167 -22 28.5c-3.33301 12 -7.16602 24 -11.499 36
s-8.16602 24 -11.499 36c-5.33301 18 -8 39 -8 63c-0.666992 3.33301 -1 7 -1 11c0 20 1 40.333 3 61c1.33301 24 3.33301 47.667 6 71s4.66699 43.666 6 60.999c2 32 3.5 63.833 4.5 95.5s2.5 63.5 4.5 95.5s4.66699 63.667 8 95s8.33301 62.666 15 93.999
c2.66699 10 6.83398 19.167 12.501 27.5s10.834 17.166 15.501 26.499z" />
    <glyph glyph-name="o" unicode="o" horiz-adv-x="724" 
d="M550 771c6.66699 -15.333 13.8359 -33.3301 21.5029 -53.9971s12.167 -40.667 13.5 -60c32.667 -43.333 58.667 -89.666 78 -138.999s31 -104.666 35 -165.999c0.666992 -6.66699 1 -13 1 -19c0 -30 -5 -60 -15 -90c-12.667 -36.667 -30.334 -71.5 -53.001 -104.5
s-49.667 -63.167 -81 -90.5s-64.833 -49.833 -100.5 -67.5s-72.167 -29.167 -109.5 -34.5c-13.333 -2 -26.333 -3 -39 -3c-24.667 0 -48.667 3.33301 -72 10c-25.333 7.33301 -49 18.666 -71 33.999s-41.833 33.333 -59.5 54s-32.167 43.167 -43.5 67.5s-19 49.5 -23 75.5
c-5.33301 37.333 -11.833 74.166 -19.5 110.499s-11.834 73.166 -12.501 110.499c0 26 2 53.5 6 82.5s10.333 57.667 19 86s19.667 55.5 33 81.5s28.666 49 45.999 69c15.333 17.333 32.333 33 51 47l54 42c16.667 12.667 35.5 21.167 56.5 25.5s41.167 9.16602 60.5 14.499
c16.667 4.66699 32 7 46 7h10c17.333 -1.33301 34 -5 50 -11s31.5 -13.667 46.5 -23l45.5 -29c5.33301 -3.33301 10.5 -6.83301 15.5 -10.5s8.5 -8.83398 10.5 -15.501zM387.002 692.003c-10 10 -16.835 20.1689 -20.502 30.502s-4.83398 20.166 -3.50098 29.499h-11.5
c-3.66699 0 -7.16699 -0.333008 -10.5 -1c-27.333 -2.66699 -53.166 -9.5 -77.499 -20.5s-46.666 -25 -66.999 -42s-38.333 -36.667 -54 -59s-28.167 -46.166 -37.5 -71.499c-18 -48.667 -28 -100.334 -30 -155.001c0 -20 0.666992 -43.167 2 -69.5s4 -53.333 8 -81
s9.83301 -54.834 17.5 -81.501s17.5 -50.334 29.5 -71.001c14 -23.333 30.833 -41.833 50.5 -55.5s41 -23 64 -28s46.667 -6 71 -3s48.166 9.16699 71.499 18.5c35.333 14.667 68 35.334 98 62.001s55 56.667 75 90s33.667 69.166 41 107.499s6 76.833 -4 115.5
c-9.33301 36 -22.666 69 -39.999 99s-37.666 58 -60.999 84c-20.667 8.66699 -33.667 22.334 -39 41.001c-11.333 10.667 -23 21 -35 31z" />
    <glyph glyph-name="p" unicode="p" horiz-adv-x="668" 
d="M151 652c-1.33301 -18.667 -6.16113 -33.334 -14.4941 -44.001s-18.166 -17.667 -29.499 -21c-1.33301 -28 -2.33301 -51.5 -3 -70.5s-1.33398 -37 -2.00098 -54s-1 -35.333 -1 -55v-74.5c0 -66 2.16699 -131.833 6.5 -197.5s9.5 -131.167 15.5 -196.5
s12.333 -130.833 19 -196.5s12.667 -131.5 18 -197.5c-1.33301 -22 -7.66602 -38.667 -18.999 -50s-24 -17 -38 -17h-1c-14 0 -26.667 5 -38 15c-12.667 10 -20.334 25.667 -23.001 47c6 133.333 8 265.166 6 395.499s-9 261.833 -21 394.5c-2 22.667 -3.83301 45 -5.5 67
s-3.5 44 -5.5 66l-3 30.5l-4.5 46.5c-1.66699 17.333 -3.16699 35.666 -4.5 54.999s-2 38.333 -2 57c-0.666992 2.66699 -1 5.66699 -1 9c0 14.667 1 28.334 3 41.001c1.33301 15.333 4.33301 28 9 38c3.33301 8 7.83301 14.333 13.5 19l17.5 15
c3.33301 1.33301 6.33301 2.33301 9 3s5.66699 1.33398 9 2.00098c12 22 27.833 40.667 47.5 56s41.167 27 64.5 35c21.333 6.66699 43.666 10 66.999 10h6c25.333 -0.666992 49.666 -5.33398 72.999 -14.001c22.667 -8 45.334 -17.167 68.001 -27.5
s42.667 -24.166 60 -41.499c31.333 -30.667 58 -63.667 80 -99s40.5 -72.333 55.5 -111s27 -78.667 36 -120s16.167 -83.333 21.5 -126c2 -11.333 3 -23 3 -35c0 -10 -0.666992 -20 -2 -30c-2.66699 -24 -9.66699 -44.667 -21 -62c-9.33301 -13.333 -18 -26.833 -26 -40.5
s-18 -25.834 -30 -36.501c-4.66699 -3.33301 -8.83398 -5.5 -12.501 -6.5s-8.16699 -2.16699 -13.5 -3.5c-24.667 -5.33301 -45.834 -9.16602 -63.501 -11.499s-34.5 -2.16602 -50.5 0.500977s-32.667 8.16699 -50 16.5s-38.333 20.5 -63 36.5
c-28 19.333 -53.667 40.5 -77 63.5s-47.666 45.5 -72.999 67.5c-15.333 15.333 -23.333 31.166 -24 47.499s3.66602 29.833 12.999 40.5s22 17 38 19s32.667 -3.33301 50 -16c22.667 -23.333 44.5 -47.166 65.5 -71.499s43.833 -46.833 68.5 -67.5
c28 -23.333 53.833 -38.5 77.5 -45.5s44.167 -6.5 61.5 1.5s31.166 23 41.499 45s16.166 50.333 17.499 85s-0.833984 68 -6.50098 100s-14.5 62.833 -26.5 92.5s-26.5 58.5 -43.5 86.5s-35.833 55.333 -56.5 82c-13.333 17.333 -30 32.833 -50 46.5s-40.833 24 -62.5 31
s-43.167 10.5 -64.5 10.5s-40.333 -4.66699 -57 -14s-30 -23.833 -40 -43.5s-14 -45.5 -12 -77.5z" />
    <glyph glyph-name="q" unicode="q" horiz-adv-x="755" 
d="M628 486c-0.666992 -15.333 -3.99609 -27.832 -9.99609 -37.499s-13.667 -17.167 -23 -22.5c-1.33301 -7.33301 -2.83301 -14.666 -4.5 -21.999s-3.83398 -14.666 -6.50098 -21.999c8.66699 -13.333 11.167 -28.5 7.5 -45.5s-15.5 -31.5 -35.5 -43.5
c-14 -4.66699 -26.667 -11.667 -38 -21s-22.166 -19.666 -32.499 -30.999l-30 -34.5c-9.66699 -11.667 -19.5 -21.834 -29.5 -30.501c-2.66699 -2 -2.16699 -1 1.5 3s7.16699 8.33301 10.5 13c-29.333 -32 -56 -64.333 -80 -97s-42.833 -66.667 -56.5 -102
s-20.5 -72.833 -20.5 -112.5s9.33301 -82.834 28 -129.501c5.33301 -13.333 14.5 -23.833 27.5 -31.5s24.833 -16.167 35.5 -25.5c13.333 1.33301 27.166 1.83301 41.499 1.5s27.833 2.16699 40.5 7.5c16.667 6.66699 33.167 15.834 49.5 27.501s31.5 24.5 45.5 38.5
s26.667 29 38 45s20.666 32 27.999 48c6 12.667 10.667 26.667 14 42s4.83301 30.833 4.5 46.5s-3.33301 30.834 -9 45.501s-14.834 27 -27.501 37c-10 8 -20.833 15 -32.5 21s-23.667 11.333 -36 16l-37 14c-12.333 4.66699 -24.5 9.66699 -36.5 15
c-13.333 13.333 -21.166 27.166 -23.499 41.499s-0.166016 27 6.50098 38s16.834 19 30.501 24s29.5 4.83301 47.5 -0.5c31.333 -18 59.166 -33 83.499 -45s45.5 -25.5 63.5 -40.5s32.5 -33.833 43.5 -56.5s18.5 -53.334 22.5 -92.001c0.666992 -5.33301 1 -11 1 -17
c0 -20.667 -3.66699 -42.334 -11 -65.001c-10 -29.333 -24.333 -57.833 -43 -85.5s-41 -53.667 -67 -78s-53.333 -44.666 -82 -60.999s-58 -27.5 -88 -33.5c-12.667 -2 -25 -3 -37 -3c-17.333 0 -34 2.33301 -50 7c-31.333 10 -55.333 24.833 -72 44.5
s-29.334 42 -38.001 67s-14.834 51.333 -18.501 79s-8.16699 54.167 -13.5 79.5c-6 29.333 -4.16699 61.166 5.5 95.499s23.334 68.333 41.001 102s37.5 66 59.5 97l60 81.5c-22 8 -44.333 21.167 -67 39.5s-44 38.666 -64 60.999s-38.333 44.833 -55 67.5
s-30.334 42 -41.001 58c-11.333 18 -23.5 35.667 -36.5 53s-25.333 35.166 -37 53.499s-22.167 37 -31.5 56s-16 39.167 -20 60.5c-4.66699 23.333 -10 46.333 -16 69c-5.33301 20.667 -8 41.334 -8 62.001v7c0.666992 8 3.83398 16 9.50098 24s12 15.5 19 22.5
s13.833 13.333 20.5 19s11 9.5 13 11.5c9.33301 10 21.666 16 36.999 18c6.66699 0.666992 13.667 1 21 1c9.33301 0 19 -0.666992 29 -2c18 -2.66699 36.5 -7.33398 55.5 -14.001s37 -13.5 54 -20.5s32.5 -14 46.5 -21s25 -12.167 33 -15.5
c7.33301 -3.33301 14.333 -6.83301 21 -10.5s13.334 -7.83398 20.001 -12.501c12 5.33301 25.167 5.83301 39.5 1.5s27.166 -14.5 38.499 -30.5c17.333 -28.667 31.166 -50.834 41.499 -66.501s18.5 -28.5 24.5 -38.5c16 -19.333 28.833 -37.166 38.5 -53.499
s18 -33.666 25 -51.999s13.5 -38.666 19.5 -60.999zM446.004 647.001c-10.667 18.667 -22.332 36.165 -34.999 52.498l-39 50.5c-28 26.667 -58.167 50.167 -90.5 70.5s-65.5 36.5 -99.5 48.5c-12.667 4.66699 -25.5 7 -38.5 7s-26.167 0.666992 -39.5 2l-14 -13.5
l-15 -14.5c2 -17.333 3 -34.666 3 -51.999s3.33301 -34 10 -50c25.333 -62.667 57.5 -123.334 96.5 -182.001s83.5 -111 133.5 -157c25.333 -23.333 54.666 -42.333 87.999 -57c8 -3.33301 16.667 -5.66602 26 -6.99902c9.33301 10 19.333 19.333 30 28
s21.667 16.334 33 23.001c2.66699 7.33301 4.5 14.833 5.5 22.5s1.83301 15.167 2.5 22.5c1.33301 34.667 -3.5 70.167 -14.5 106.5s-25.167 69.5 -42.5 99.5z" />
    <glyph glyph-name="r" unicode="r" horiz-adv-x="519" 
d="M120 653c0 4 -0.336914 9.83203 -1.00391 17.499s-1.33398 16.167 -2.00098 25.5s-1.66699 19 -3 29s-3 19.667 -5 29c-6.66699 -12 -15.667 -20.5 -27 -25.5s-22.666 -6.33301 -33.999 -4s-21.666 8.66602 -30.999 18.999s-15 24.5 -17 42.5
c0 14.667 4.33301 29.667 13 45s19.667 28.833 33 40.5s28 19.834 44 24.501c6.66699 2 13 3 19 3c9.33301 0 18.333 -2 27 -6c13.333 -6.66699 24.166 -14.834 32.499 -24.501s14.833 -20.5 19.5 -32.5s8 -24.667 10 -38s3 -26.666 3 -39.999
c0.666992 -18 0.833984 -36 0.500977 -54s-1.16602 -36.333 -2.49902 -55c5.33301 11.333 11.5 23.333 18.5 36s16.167 27.667 27.5 45c4 6 9 11 15 15s12.5 7.5 19.5 10.5s14.333 5.83301 22 8.5s14.834 5.66699 21.501 9c5.33301 2.66699 10.5 4.83398 15.5 6.50098
s10.833 1.83398 17.5 0.500977c19.333 -2 37.333 -8.16699 54 -18.5s33.667 -19.5 51 -27.5c18 -12.667 28.667 -27 32 -43c0.666992 -4.66699 1 -9.33398 1 -14.001c0 -10 -2.33301 -19.333 -7 -28c-7.33301 -12 -18.666 -20.333 -33.999 -25s-33 -2.33398 -53 6.99902
l-29.5 20l-29.5 20c-6 -1.33301 -12.167 -2.33301 -18.5 -3s-11.833 -3 -16.5 -7c-10.667 -10 -21 -22.333 -31 -37s-19.167 -30 -27.5 -46s-15.666 -32 -21.999 -48s-11.5 -30.333 -15.5 -43c-10 -32.667 -18 -65.834 -24 -99.501s-11.167 -67.5 -15.5 -101.5
s-8.33301 -68 -12 -102s-8.16699 -68 -13.5 -102c-1.33301 -16 -2.83301 -31.833 -4.5 -47.5s-3.16699 -31.5 -4.5 -47.5c-6.66699 -18 -16 -30.667 -28 -38c-10.667 -6 -21 -9 -31 -9h-6c-12.667 1.33301 -24 7.33301 -34 18s-16.333 25.334 -19 44.001
c1.33301 3.33301 2.16602 7 2.49902 11s1.16602 7.66699 2.49902 11c-3.33301 13.333 -3.66602 27.333 -0.999023 42c4.66699 12.667 9 25.334 13 38.001s9 24.667 15 36c2 8 4.16699 16 6.5 24s4.5 16 6.5 24c17.333 76.667 31.833 153.5 43.5 230.5
s16.167 155.167 13.5 234.5z" />
    <glyph glyph-name="s" unicode="s" horiz-adv-x="447" 
d="M168 799l4.00195 -0.00292969c16.667 0 31 -3.66699 43 -11c12 -8 19.833 -18 23.5 -30s2.66699 -24.833 -3 -38.5s-18.834 -25.667 -39.501 -36s-35.167 -17.166 -43.5 -20.499s-15.5 -8.66602 -21.5 -15.999s-11.667 -15.333 -17 -24l-16 -26
c3.33301 -13.333 5.83301 -27.166 7.5 -41.499s5.16699 -28.166 10.5 -41.499c14 -32 30.5 -62.833 49.5 -92.5s39.333 -58.5 61 -86.5s44.167 -55.333 67.5 -82l69 -79c11.333 -12.667 21 -26.334 29 -41.001s16.667 -29.334 26 -44.001
c2.66699 -7.33301 4 -13.666 4 -18.999s-1.66699 -11.666 -5 -18.999c-4 -5.33301 -8 -11 -12 -17l-12 -18c-7.33301 -8 -14 -13.333 -20 -16c-4.66699 -1.33301 -10 -2 -16 -2h-11c-36.667 4.66699 -68.167 9.5 -94.5 14.5s-51.333 11 -75 18s-47.334 15.833 -71.001 26.5
s-50.834 24.667 -81.501 42c-13.333 13.333 -21 27.333 -23 42c-0.666992 3.33301 -1 6.66602 -1 9.99902c0 10 2.33301 19.333 7 28c6.66699 10.667 16.834 18.5 30.501 23.5s29.5 4.83301 47.5 -0.5c24.667 -18 46.5 -32.833 65.5 -44.5s37.5 -21.667 55.5 -30
s36.667 -15.666 56 -21.999s42 -12.833 68 -19.5l-21 40c-4.66699 9.33301 -10 18.5 -16 27.5s-13.833 19.5 -23.5 31.5l-42.5 53c-17.333 22.667 -37.833 47.167 -61.5 73.5s-46.667 54 -69 83s-42.166 58.667 -59.499 89s-28 60.833 -32 91.5c-1.33301 8 -2 16.333 -2 25
c0 21.333 4 42.666 12 63.999c11.333 29.333 34.666 57.333 69.999 84c14 11.333 27.333 21 40 29s27 15.333 43 22z" />
    <glyph glyph-name="t" unicode="t" horiz-adv-x="534" 
d="M395 781c22 1.33301 39.1602 -3.33105 51.4932 -13.998s19.333 -23 21 -37s-2.16602 -27.667 -11.499 -41s-24.666 -22 -45.999 -26c-40 1.33301 -74.333 -3.5 -103 -14.5s-54.667 -26.167 -78 -45.5c-15.333 -78 -26.5 -155 -33.5 -231s-3.5 -148.333 10.5 -217
c2.66699 -11.333 7.16699 -22.166 13.5 -32.499s12.166 -21.166 17.499 -32.499c8 0 16 -1 24 -3s15.333 -1 22 3c25.333 16.667 48.833 35.667 70.5 57s43.834 41.666 66.501 60.999c18 6.66699 34 8.16699 48 4.5s24.667 -10.5 32 -20.5c6 -9.33301 9 -20.333 9 -33v-4
c-0.666992 -14.667 -7 -29.334 -19 -44.001c-28 -18.667 -50.833 -34.834 -68.5 -48.501l-44 -34c-11.667 -9 -22 -16 -31 -21s-18.833 -8.16699 -29.5 -9.5c-6.66699 -0.666992 -14 -1 -22 -1c-6 0 -12.333 0.333008 -19 1c-16.667 0.666992 -38 2.66699 -64 6
c-11.333 1.33301 -20 4.16602 -26 8.49902s-11.667 11.833 -17 22.5l-19.5 49l-18.5 49c-3.33301 8 -5.33301 21.667 -6 41s-0.5 41.333 0.5 66s2.33301 50.5 4 77.5s3.33398 52.5 5.00098 76.5s3.33398 45.167 5.00098 63.5s2.83398 30.833 3.50098 37.5
c0 4.66699 0.333008 8.33398 1 11.001l-22.5 -31.5l-23.5 -32.5c-16.667 -10 -32.167 -14.167 -46.5 -12.5s-26 7 -35 16s-14.167 20.833 -15.5 35.5c-0.666992 2 -1 4 -1 6c0 12.667 4.33301 26 13 40l71 51l72 51c5.33301 56.667 10.333 113.167 15 169.5
s8.33398 113.166 11.001 170.499c4 21.333 12.667 36.666 26 45.999c11.333 8 23 12 35 12h6c14 -2 26.333 -9.16699 37 -21.5s15.334 -29.5 14.001 -51.5c-6 -39.333 -13.5 -79.666 -22.5 -120.999l-27.5 -127c22 17.333 45 32 69 44s49.333 22.333 76 31z" />
    <glyph glyph-name="u" unicode="u" horiz-adv-x="702" 
d="M599 852c-0.666992 -20 -3.17383 -39.3301 -7.50684 -57.9971s-10.5 -37.667 -18.5 -57c-6 -48.667 -9.5 -93.834 -10.5 -135.501s0.666992 -82.167 5 -121.5s11.5 -79 21.5 -119s22.667 -82.333 38 -127c9.33301 -10 14.333 -21.333 15 -34
c6 -11.333 11.333 -22.833 16 -34.5s9.66699 -23.167 15 -34.5c2.66699 -9.33301 4 -18 4 -26c0 -10 -2 -19 -6 -27c-7.33301 -14.667 -17.5 -24.5 -30.5 -29.5s-27.167 -4.66699 -42.5 1s-27.666 18.5 -36.999 38.5c-0.666992 0.666992 -1 1.66699 -1 3
c-36 -26.667 -74 -48.5 -114 -65.5s-82.333 -30.5 -127 -40.5c-11.333 -2.66699 -22.666 -5 -33.999 -7c-5.33301 -0.666992 -10.666 -1 -15.999 -1c-6.66699 0 -13.334 0.666992 -20.001 2c-9.33301 2 -19 3.16699 -29 3.5s-20 1.16602 -30 2.49902s-19.667 3.33301 -29 6
s-17.333 7.33398 -24 14.001l-38 36c-12.667 12 -24 25 -34 39c-11.333 17.333 -20.166 36.5 -26.499 57.5s-11.166 41.833 -14.499 62.5s-6.83301 41 -10.5 61s-6.5 40.333 -8.5 61c-3.33301 38.667 -5 77.334 -5 116.001s0.666992 77.334 2 116.001s3 77.334 5 116.001
s3 77.334 3 116.001c4 21.333 12.667 36.666 26 45.999s27 13.166 41 11.499s26.333 -8.66699 37 -21s15.334 -29.5 14.001 -51.5c-5.33301 -46 -12.333 -92.667 -21 -140s-16 -94.833 -22 -142.5s-9.5 -95.334 -10.5 -143.001s3.16699 -94.5 12.5 -140.5
c8 -38.667 20.5 -69 37.5 -91s36.833 -37.5 59.5 -46.5s47.167 -12.333 73.5 -10s52.833 8.5 79.5 18.5s52.5 22.833 77.5 38.5s47.5 32.834 67.5 51.501c12 11.333 21.333 21.166 28 29.499l24 30.5c-6 40 -11.167 79.833 -15.5 119.5s-9.16602 80.5 -14.499 122.5
c-3.33301 22.667 -6 41.667 -8 57l-6 44c-2 14 -3.66699 28.833 -5 44.5l-5 57.5c-1.33301 15.333 -2.33301 30.5 -3 45.5s-1 30.167 -1 45.5c0.666992 14.667 1.83398 27.5 3.50098 38.5s2.5 22.167 2.5 33.5c-1.33301 5.33301 -2 9.66602 -2 12.999
c0 1.33301 0.166992 2.66602 0.5 3.99902s0.5 2.66602 0.5 3.99902v2c4 18 11.5 31.667 22.5 41s22.833 14.333 35.5 15h1c12 0 23.667 -4.33301 35 -13s19.333 -22 24 -40v-8zM646.493 178.003l-3.5 9c2.66699 -6.66699 4.16699 -10.5 4.5 -11.5s0 -0.166992 -1 2.5z" />
    <glyph glyph-name="v" unicode="v" horiz-adv-x="683" 
d="M642 783c10 -14 15.3301 -27.668 15.9971 -41.001v-4c0 -11.333 -2.66699 -21.333 -8 -30c-6.66699 -10 -15.5 -17.333 -26.5 -22s-22.833 -5.33398 -35.5 -2.00098c-39.333 -42.667 -74.666 -88.334 -105.999 -137.001s-59.666 -99.167 -84.999 -151.5
s-48.666 -105.833 -69.999 -160.5l-62 -163c2 -16 0 -29.667 -6 -41s-14.333 -19.333 -25 -24c-6.66699 -3.33301 -14.334 -5 -23.001 -5c-4 0 -8.33301 0.333008 -13 1c-13.333 2.66699 -26.333 10.334 -39 23.001c-5.33301 11.333 -11.166 22.666 -17.499 33.999
s-11.166 23 -14.499 35c-14.667 52.667 -24.834 105.334 -30.501 158.001s-12.834 106 -21.501 160c-11.333 70.667 -24.333 140.167 -39 208.5s-26.667 137.833 -36 208.5c4 18.667 11.333 32.834 22 42.501s22.334 14.834 35.001 15.501h1
c12.667 0 24.667 -4.33301 36 -13s19.666 -22 24.999 -40c-2.66699 -51.333 -4 -104.333 -4 -159s2.83301 -109.667 8.5 -165s14.667 -110 27 -164s29.5 -105.333 51.5 -154l91 153c30 50.667 58.667 102.667 86 156l37 76.5l37 76c12.667 25 26 49.667 40 74
s29.667 47.833 47 70.5c28 23.333 56.333 24.333 85 3c3.33301 -3.33301 6.33301 -6.5 9 -9.5s5.33398 -6.16699 8.00098 -9.5z" />
    <glyph glyph-name="w" unicode="w" horiz-adv-x="1188" 
d="M1049 859c10.667 18.667 23.8291 30.1699 39.4961 34.5029s29.834 3.5 42.501 -2.5s22 -16.333 28 -31c2.66699 -6.66699 4 -13.667 4 -21c0 -10 -2.33301 -21 -7 -33l-100.5 -173c-33.667 -58.667 -62.167 -119 -85.5 -181s-42.5 -125.833 -57.5 -191.5l-45.5 -195.5
c-8.66699 -22 -21 -36 -37 -42c1.33301 -2 2.5 -4 3.5 -6s2.16699 -3.66699 3.5 -5c5.33301 -4 10 -8.66699 14 -14c12.667 -17.333 18 -34 16 -50s-8.33301 -28.667 -19 -38c-10 -8.66699 -22.333 -13 -37 -13h-3c-16.667 0.666992 -32.667 8.66699 -48 24
c-30 38.667 -53.333 79.5 -70 122.5s-29 87.333 -37 133s-12.833 92.167 -14.5 139.5s-2.83398 94.666 -3.50098 141.999c-34.667 -34.667 -63.167 -73.667 -85.5 -117s-43.166 -87.333 -62.499 -132c-3.33301 -8.66699 -6.83301 -17.167 -10.5 -25.5
s-7.16699 -17.166 -10.5 -26.499c-2 -4.66699 -3.83301 -9.16699 -5.5 -13.5l-5.5 -14.5c1.33301 0.666992 1.83301 0.333984 1.5 -0.999023s-0.833008 -3 -1.5 -5s-1.5 -4.16699 -2.5 -6.5s-1.83301 -4.16602 -2.5 -5.49902l-12 -42c-2.66699 -6.66699 -5 -13 -7 -19
l-6 -18c1.33301 -2.66699 3 -5.16699 5 -7.5s4 -4.83301 6 -7.5c5.33301 -18 5.5 -33.833 0.5 -47.5s-13 -23.834 -24 -30.501s-23.667 -8.83398 -38 -6.50098s-28.166 10.166 -41.499 23.499c-2 3.33301 -3.83301 6.66602 -5.5 9.99902s-3.5 6.66602 -5.5 9.99902
c-8 5.33301 -14.5 12.5 -19.5 21.5s-6.83301 19.167 -5.5 30.5c-27.333 62 -50.833 125.5 -70.5 190.5s-40.834 129.833 -63.501 194.5l-43.5 116.5l-44.5 115.5c-14.667 38.667 -28.334 77.5 -41.001 116.5s-23.667 78.833 -33 119.5c-0.666992 4.66699 -1 9 -1 13
c0 15.333 4 28.333 12 39c9.33301 12.667 21 20.667 35 24c3.33301 0.666992 6.66602 1 9.99902 1c10.667 0 21 -3 31 -9c14 -8.66699 24 -23.334 30 -44.001c4.66699 -60.667 13.334 -123.667 26.001 -189s28.834 -130.833 48.501 -196.5s42.834 -130.167 69.501 -193.5
s56.334 -123.333 89.001 -180l26 51.5l27 51.5l40.5 71.5c15 26.333 31 52.166 48 77.499s35.167 48.833 54.5 70.5s40 38.5 62 50.5c7.33301 4 14.833 6.83301 22.5 8.5s15.167 3.83398 22.5 6.50098c10 0.666992 17.833 -1 23.5 -5s9.83398 -11 12.501 -21
c8 -23.333 12.5 -48.666 13.5 -75.999s2.83301 -53.333 5.5 -78c4.66699 -38.667 10.667 -78 18 -118s19 -78.333 35 -115l77.5 176c26.333 58 51.166 117.333 74.499 178c24.667 64 47.334 128 68.001 192s43 128 67 192z" />
    <glyph glyph-name="x" unicode="x" horiz-adv-x="751" 
d="M646 851c18.667 0.666992 34.165 -2.99609 46.498 -10.9961s20.333 -18 24 -30s2.66699 -24.833 -3 -38.5s-16.5 -25.167 -32.5 -34.5c-13.333 -2.66699 -26.666 -4.66699 -39.999 -6s-26.666 -4.66602 -39.999 -9.99902c-14.667 -6 -30.167 -14.333 -46.5 -25
s-32.333 -22.334 -48 -35.001s-30.5 -25.5 -44.5 -38.5l-37 -34.5l-31.5 -32c-10.333 -10.667 -20.166 -21.667 -29.499 -33l27 -48.5c8.66699 -15.667 17.667 -30.834 27 -45.501c48 -78.667 98.167 -156 150.5 -232l153.5 -232c2.66699 -8.66699 4 -17.334 4 -26.001
c0 -7.33301 -1 -14.333 -3 -21c-5.33301 -14 -13.333 -24.333 -24 -31c-8.66699 -4.66699 -18 -7 -28 -7c-3.33301 0 -6.66602 0.333008 -9.99902 1c-14.667 2 -28.667 9.66699 -42 23c-44.667 97.333 -91.334 192.666 -140.001 285.999s-102.667 184.666 -162 273.999
c-44 -60 -82.833 -122.833 -116.5 -188.5s-64.167 -132.834 -91.5 -201.501c-12 -14.667 -25 -23.667 -39 -27s-26.667 -2.16602 -38 3.50098s-20 15.167 -26 28.5c-4 8 -6 17.333 -6 28c0 6 0.666992 12.667 2 20c42 70 86.333 136.667 133 200l145 192
c-3.33301 4 -6.33301 8 -9 12l-8 12l-43.5 61c-15 20.667 -30.5 40.834 -46.5 60.501s-32.833 38.5 -50.5 56.5s-36.5 34.333 -56.5 49c-15.333 15.333 -23.333 31.166 -24 47.499s3.66602 29.833 12.999 40.5s22 17 38 19h7c14 0 28.333 -5.33301 43 -16
c38 -36 72 -78.333 102 -127s58.667 -98.334 86 -149.001c34 42.667 68.333 83.334 103 122.001s74 75 118 109c13.333 10 28.5 17 45.5 21s33.167 8.66699 48.5 14z" />
    <glyph glyph-name="y" unicode="y" horiz-adv-x="838" 
d="M695 769c4 21.333 12.6729 36.6748 26.0059 46.0078s27 13.166 41 11.499s26.333 -8.5 37 -20.5c9.33301 -11.333 14 -26.333 14 -45v-7c-2.66699 -18 -7.66699 -36.167 -15 -54.5l-22 -53.5c-23.333 -58.667 -47.5 -116.167 -72.5 -172.5l-75.5 -171.5
c-12.667 -28 -24.5 -56.333 -35.5 -85l-33.5 -87c1.33301 -12 0 -22.667 -4 -32s-9.66699 -17 -17 -23c-16.667 -42.667 -34 -84.834 -52 -126.501s-38.667 -82.167 -62 -121.5c-18 -30 -32.5 -55.333 -43.5 -76s-20.667 -37.834 -29 -51.501s-16.333 -25.167 -24 -34.5
s-16.834 -18.166 -27.501 -26.499s-24 -16.833 -40 -25.5l-62 -32c-3.33301 -1.33301 -7.33301 -2 -12 -2h-3c-4 0 -7.33301 0.333008 -10 1l-26 8.5c-9.33301 3 -18.5 6.5 -27.5 10.5s-17.167 8.83301 -24.5 14.5s-13.333 12.167 -18 19.5l-31 52.5
c-10.667 17.667 -19 36.167 -25 55.5c-8 28.667 -14 60 -18 94c-2 14.667 -3 29.334 -3 44.001c0 18.667 1.66699 36.667 5 54c4.66699 32 14.667 62 30 90s38.333 50.667 69 68c9.33301 5.33301 21.333 8.16602 36 8.49902s29.167 -0.5 43.5 -2.5s27.5 -4.33301 39.5 -7
s20.333 -4.33398 25 -5.00098c20.667 -6 35.167 -16 43.5 -30s9.33301 -26.167 3 -36.5s-16 -20.333 -29 -30s-30.167 -13.167 -51.5 -10.5c-12 2.66699 -24.167 5.16699 -36.5 7.5s-24.5 4.83301 -36.5 7.5c-5.33301 -5.33301 -11.333 -10 -18 -14
s-11.667 -9.66699 -15 -17c-9.33301 -19.333 -14 -42.5 -14 -69.5s1 -52.667 3 -77s6.66699 -47.833 14 -70.5s17.666 -42.667 30.999 -60c5.33301 -6.66699 12.166 -11.334 20.499 -14.001s16.166 -6.33398 23.499 -11.001c12 6 24.667 11 38 15s24.333 10.667 33 20
c17.333 18.667 32.833 37 46.5 55s26.167 36.167 37.5 54.5s21.833 37.166 31.5 56.499s19.167 39.666 28.5 60.999l32.5 77.5c10.333 25.667 20.166 51.834 29.499 78.501c-8 6.66699 -14.333 15.667 -19 27c-4 13.333 -8.5 26.5 -13.5 39.5s-9.16699 26.167 -12.5 39.5v1
l-52 127c-18 42 -37.667 83 -59 123l-45 79c-15.333 26 -30 52.167 -44 78.5s-27.167 53.166 -39.5 80.499s-22.5 56 -30.5 86c-2.66699 21.333 0.833008 38.5 10.5 51.5s21.5 21.167 35.5 24.5c3.33301 0.666992 6.66602 1 9.99902 1c10.667 0 21 -3 31 -9
c14 -8.66699 24 -23.334 30 -44.001c3.33301 -54.667 13 -106.5 29 -155.5s35.833 -96.333 59.5 -142s49.5 -90.5 77.5 -134.5l83 -133l45.5 134l45.5 134l33.5 96l31.5 96c4 13.333 8.83301 28.333 14.5 45s9.16699 32 10.5 46zM435.006 143.009
c-0.666992 0.666992 -0.998047 1.16699 -0.998047 1.5s-0.333008 0.833008 -1 1.5c1.33301 -2 2.16602 -3.5 2.49902 -4.5s0.166016 -0.5 -0.500977 1.5z" />
    <glyph glyph-name="z" unicode="z" horiz-adv-x="870" 
d="M74 680c-2 16 -0.508789 29.6641 4.49121 40.9971s12 20 21 26s19.5 9 31.5 9c11.333 0 22.333 -3.66699 33 -11h3c23.333 1.33301 46.333 2 69 2s45.667 -0.333008 69 -1c2.66699 0 1.83398 0 -2.49902 0s-9.66602 -0.166992 -15.999 -0.5s-11.833 -0.5 -16.5 -0.5
s-5.33398 0 -2.00098 0c52 0 103.667 0.666992 155 2s103 -0.666992 155 -6c6.66699 -0.666992 16 -1.5 28 -2.5s24.667 -2.33301 38 -4s26 -3.66699 38 -6s21 -5.5 27 -9.5c22 -15.333 28 -35.666 18 -60.999c-2.66699 -4.66699 -5.5 -8.33398 -8.5 -11.001
s-6.16699 -5.66699 -9.5 -9c-11.333 -12.667 -22.333 -25.667 -33 -39s-22 -25.666 -34 -36.999c-18 -17.333 -37.167 -33.666 -57.5 -48.999l-61.5 -44.5l-63 -42.5c-21.333 -14 -42 -28.333 -62 -43c-56 -40.667 -105.667 -84.167 -149 -130.5
s-79.666 -97.5 -108.999 -153.5c28.667 16.667 60.167 29.834 94.5 39.501s69.833 16.834 106.5 21.501s74.167 7.66699 112.5 9s76 2.16602 113 2.49902s73 0.833008 108 1.5s67.5 3 97.5 7c22 1.33301 39.167 -3.33398 51.5 -14.001s19.5 -23 21.5 -37v-6
c0 -12 -4 -23.667 -12 -35c-9.33301 -13.333 -24.666 -22 -45.999 -26c-24 -1.33301 -42 -2.5 -54 -3.5s-22.667 -1.66699 -32 -2s-20.166 -0.333008 -32.499 0s-31.166 1.16602 -56.499 2.49902c-29.333 1.33301 -59.166 3.5 -89.499 6.5s-60.833 5.16699 -91.5 6.5
s-61.334 0.833008 -92.001 -1.5s-60.334 -7.83301 -89.001 -16.5c-38 -11.333 -70.833 -28 -98.5 -50s-49.834 -51 -66.501 -87c-1.33301 -3.33301 -3.16602 -6.66602 -5.49902 -9.99902s-4.16602 -6.66602 -5.49902 -9.99902c-1.33301 -5.33301 -2 -9.66602 -2 -12.999
c-0.666992 0 -1 0.333008 -1 1c-5.33301 -11.333 -12.333 -18.666 -21 -21.999c-5.33301 -2 -10.333 -3 -15 -3c-3.33301 0 -6.66602 0.333008 -9.99902 1c-8.66699 2.66699 -15.334 8 -20.001 16c-3.33301 5.33301 -5 11.666 -5 18.999c0 4 0.333008 8 1 12
c11.333 47.333 25 91 41 131s34.833 78.167 56.5 114.5s46.334 71.5 74.001 105.5s58.834 68.667 93.501 104c18.667 19.333 38.5 37.333 59.5 54s42.5 32.834 64.5 48.501l66 46.5c22 15.333 43 31.666 63 48.999l34 28c11.333 9.33301 21.666 19.333 30.999 30
c4 4 7.83301 8.16699 11.5 12.5s7.16699 8.83301 10.5 13.5c-15.333 1.33301 -29 2.33301 -41 3s-28 1 -48 1c-47.333 0 -94.333 -2.16699 -141 -6.5s-93.667 -7.83301 -141 -10.5c-14 -0.666992 -29.167 -1.83398 -45.5 -3.50098s-32.166 -1.66699 -47.499 0
s-29.166 6.16699 -41.499 13.5s-21.166 20 -26.499 38z" />
    <glyph glyph-name="braceleft" unicode="{" horiz-adv-x="586" 
d="M456 1250c15.333 13.333 30.667 19.999 46 19.999h4c16 -1.33301 28.833 -6.83301 38.5 -16.5s15.167 -22.5 16.5 -38.5v-4c0 -15.333 -6.66699 -30.666 -20 -45.999c-22 -18 -45.5 -33 -70.5 -45s-49.667 -24.5 -74 -37.5s-46.833 -28.333 -67.5 -46
s-37.334 -40.5 -50.001 -68.5c-7.33301 -16.667 -12.333 -34 -15 -52s-4 -36 -4 -54s0.666992 -36.167 2 -54.5s2.33301 -36.5 3 -54.5c1.33301 -29.333 1.5 -58.166 0.5 -86.499s-4.16699 -57.166 -9.5 -86.499c-5.33301 -26 -17.333 -48.667 -36 -68s-39.667 -35 -63 -47
c4 -1.33301 8 -3 12 -5l12 -6c14.667 -7.33301 29.167 -18.333 43.5 -33s28.166 -31.667 41.499 -51s25.833 -40.333 37.5 -63s22 -45.167 31 -67.5s16.167 -44 21.5 -65s8.66602 -39.833 9.99902 -56.5c1.33301 -15.333 1.33301 -30.833 0 -46.5
s-3.66602 -31.167 -6.99902 -46.5c-4 -18.667 -11.5 -40.667 -22.5 -66l-33 -77c-11 -26 -20.167 -51 -27.5 -75s-9 -44 -5 -60c2.66699 -10.667 9.83398 -19.5 21.501 -26.5s25.667 -12.5 42 -16.5s33.666 -6.83301 51.999 -8.5s35.5 -2.66699 51.5 -3
s29.833 -0.333008 41.5 0s18.834 0.5 21.501 0.5c18 -5.33301 31.333 -13.833 40 -25.5s12.834 -23.834 12.501 -36.501s-5.33301 -24.334 -15 -35.001s-23.834 -18 -42.501 -22c-27.333 3.33301 -57.666 6.33301 -90.999 9s-65.5 8.16699 -96.5 16.5
s-58.667 21.666 -83 39.999s-41.5 44.5 -51.5 78.5c-6.66699 23.333 -6 49.333 2 78s18.667 57.834 32 87.501s27.166 58.5 41.499 86.5s24.5 53 30.5 75c7.33301 27.333 8.66602 58.333 3.99902 93s-13.334 69 -26.001 103s-28.5 65.333 -47.5 94s-39.5 50.667 -61.5 66
c-9.33301 6.66699 -19.166 11.5 -29.499 14.5s-20.833 5 -31.5 6s-21.5 1.33301 -32.5 1s-21.833 0.166992 -32.5 1.5c-13.333 6.66699 -20.666 16 -21.999 28c-0.666992 1.33301 -1 2.66602 -1 3.99902c0 10 5 19 15 27c12.667 9.33301 25.834 16 39.501 20
s27.167 8.16699 40.5 12.5s26.5 10.333 39.5 18s25.833 19.834 38.5 36.501c5.33301 6.66699 9.16602 15.334 11.499 26.001s3.83301 21.5 4.5 32.5s0.666992 21.667 0 32s-1 18.833 -1 25.5c-0.666992 26.667 -2.66699 53.5 -6 80.5s-6 54 -8 81s-2.33301 53.833 -1 80.5
s7 53 17 79s21.167 48.167 33.5 66.5s25.5 33.833 39.5 46.5s28.667 23.834 44 33.501s31.333 19.167 48 28.5s33.334 19.166 50.001 29.499s33.667 23.166 51 38.499z" />
    <glyph glyph-name="bar" unicode="|" horiz-adv-x="168" 
d="M17 1222c4 18.667 11.333 32.8301 22 42.4971s22.334 14.834 35.001 15.501h1c12.667 0 24.667 -4.33301 36 -13s19.666 -22 24.999 -40c-6 -98 -12.667 -196 -20 -294s-13.666 -196 -18.999 -294s-9.33301 -196.167 -12 -294.5s-2.33398 -196.833 0.999023 -295.5
c1.33301 -37.333 2.33301 -75.5 3 -114.5s2.5 -78.167 5.5 -117.5s7.83301 -78.166 14.5 -116.499s16.667 -75.166 30 -110.499c2.66699 -8.66699 4 -17.334 4 -26.001c0 -9.33301 -2 -18.333 -6 -27c-7.33301 -14.667 -17.333 -24.334 -30 -29.001
c-6.66699 -2.66699 -13.334 -4 -20.001 -4c-7.33301 0 -15 1.66699 -23 5c-15.333 5.33301 -27.666 18 -36.999 38c-7.33301 28 -13 50.667 -17 68s-6.66699 34.333 -8 51s-2 35.667 -2 57v86c-0 36 0.333008 68.5 1 97.5s1.5 56.167 2.5 81.5s2.16699 50 3.5 74l4 75
c1.33301 26 2.5 53.833 3.5 83.5l3.5 100.5c4.66699 150.667 6.5 300.834 5.5 450.501s-3.16699 299.834 -6.5 450.501z" />
    <glyph glyph-name="braceright" unicode="}" horiz-adv-x="593" 
d="M69 1212c-21.333 2.66699 -37.1689 10.1689 -47.502 22.502s-15.333 25.5 -15 39.5s6.16602 26.667 17.499 38s28 17.666 50 18.999c17.333 -1.33301 34.666 -4.16602 51.999 -8.49902s33.666 -10.5 48.999 -18.5c20 -10 40.5 -23.333 61.5 -40s41.167 -35.5 60.5 -56.5
s37.333 -43.833 54 -68.5s30.5 -49.667 41.5 -75s18.5 -50.5 22.5 -75.5s3.66699 -48.833 -1 -71.5c-4 -20.667 -11.5 -43.667 -22.5 -69s-21.167 -51.333 -30.5 -78s-16 -52.667 -20 -78s-1.33301 -48.333 8 -69c8.66699 -19.333 20.834 -36.5 36.501 -51.5
s32.834 -28.667 51.501 -41s38 -23.333 58 -33l56 -26.5c11.333 -8 17 -17.333 17 -28c-0.666992 -11.333 -7 -20.666 -19 -27.999c-37.333 -9.33301 -71.166 -26.166 -101.499 -50.499s-56.5 -52.833 -78.5 -85.5s-39 -67.834 -51 -105.501s-18 -74.834 -18 -111.501
c0 -25.333 1.5 -50.333 4.5 -75s5.83301 -49.334 8.5 -74.001s4.5 -49.5 5.5 -74.5s-0.5 -49.833 -4.5 -74.5c-5.33301 -34.667 -17.666 -65.834 -36.999 -93.501s-42.333 -48.834 -69 -63.501c-26 -14 -54.333 -21 -85 -21h-4c-32.667 0.666992 -64.334 12 -95.001 34
c-15.333 15.333 -23.333 31.333 -24 48v3c0 15.333 4.33301 27.666 13 36.999c9.33301 10.667 22 17 38 19s32.667 -3.33301 50 -16c7.33301 -5.33301 16 -8.33301 26 -9s20 0.5 30 3.5s19.167 7.66699 27.5 14s14.166 13.833 17.499 22.5c6 17.333 10.333 32.333 13 45
s4.66699 27.667 6 45c2 24 2.66699 48 2 72s-1.5 47.833 -2.5 71.5s-1.5 47.5 -1.5 71.5s1.33301 48 4 72c3.33301 30.667 11.833 62.334 25.5 95.001s31 63.667 52 93s44.833 56.166 71.5 80.499s55 44.166 85 59.499c-19.333 9.33301 -38.666 19.5 -57.999 30.5
s-37.333 23.333 -54 37s-31 28.834 -43 45.501s-20.667 35.334 -26 56.001c-9.33301 38 -10.666 74.5 -3.99902 109.5s16.334 70.5 29.001 106.5l17 46c6 16.667 9.33301 33 10 49c1.33301 28 -5.66699 58.333 -21 91s-35.5 63.334 -60.5 92.001s-53.167 52.667 -84.5 72
s-62.333 29.333 -93 30z" />
    <glyph glyph-name="asciitilde" unicode="~" horiz-adv-x="1012" 
d="M98 311c-16.667 -10 -32.165 -14.1699 -46.498 -12.5029s-26 7 -35 16s-14.167 20.833 -15.5 35.5c-0.666992 2 -1 4 -1 6c0 12.667 4.33301 26 13 40c2 2 4.66699 5.33301 8 10s4.66602 5.66699 3.99902 3c0 -2.66699 -0.333008 -4.66699 -1 -6
c14.667 22 27.667 43.5 39 64.5s24 39.333 38 55s31.333 27.5 52 35.5c14 5.33301 30.667 8 50 8c10 0 20.667 -0.666992 32 -2c20.667 -2 39.667 -9.83301 57 -23.5s33 -27.167 47 -40.5l64.5 -62.5c21.667 -21.667 43.834 -42.667 66.501 -63s46.5 -39.166 71.5 -56.499
s51.5 -31 79.5 -41c31.333 -10.667 61.833 -14.167 91.5 -10.5s56.167 18.834 79.5 45.501c19.333 23.333 35.666 48.5 48.999 75.5s27.666 53.167 42.999 78.5c14.667 12 29.334 18.333 44.001 19s27 -2.5 37 -9.5s17 -17.5 21 -31.5c0.666992 -4.66699 1 -10 1 -16
c0 -10 -2 -20.667 -6 -32c-17.333 -22 -34.333 -45.167 -51 -69.5s-35.167 -47 -55.5 -68s-43 -38.667 -68 -53s-53.833 -22.166 -86.5 -23.499h-10c-30.667 0 -59.334 5.33301 -86.001 16c-30 11.333 -58.833 26 -86.5 44s-54.167 38 -79.5 60l-74 62
c-8.66699 6.66699 -19.5 15.667 -32.5 27s-26.833 22.5 -41.5 33.5s-29.667 21.167 -45 30.5s-29.666 16 -42.999 20c-5.33301 2 -11 2 -17 0s-12 -3.66699 -18 -5c0.666992 0 0 -1 -2 -3c-16.667 -25.333 -30.834 -51.5 -42.501 -78.5s-26.5 -52.833 -44.5 -77.5z" />
    <glyph glyph-name="exclamdown" unicode="&#xa1;" horiz-adv-x="152" 
d="M0 -284.931c4 -18.665 11.332 -32.833 21.999 -42.499s22.334 -14.832 35.001 -15.499h1c12.667 0 24.667 4.33301 36 12.999s19.666 21.999 24.999 39.998c-1.33301 18.665 -3.16602 41.3301 -5.49902 67.9951l-7 81.4951c-2.33301 27.665 -4.33301 53.6631 -6 77.9941
c-1.66699 24.332 -2.5 43.498 -2.5 57.4971c0 51.9971 0.5 96.6611 1.5 133.992s2.83301 72.8291 5.5 106.494s5.83398 68.1631 9.50098 103.494l12.5 123.992c-1.33301 21.999 -7.66602 38.665 -18.999 49.998s-24 17.166 -38 17.499s-27.167 -4.66699 -39.5 -15
s-19.833 -26.165 -22.5 -47.4971l8.5 -91.4941l6.5 -70.9961c2 -21.665 3.5 -42.3301 4.5 -61.9951s1.66699 -41.1641 2 -64.4961s0.166016 -49.3301 -0.500977 -77.9951s-1.66699 -62.9961 -3 -102.993c0 -5.33301 -0.5 -14.666 -1.5 -27.999s-2.33301 -28.665 -4 -45.9971
l-5.5 -55.9961l-6 -58.9971l-5.5 -53.4961c-1.66699 -16.333 -2.83398 -29.832 -3.50098 -40.498zM-0.000976562 740.005c4 -18.665 11.3311 -32.832 21.998 -42.498s22.334 -14.666 35.001 -14.999s24.834 3.83301 36.501 12.499s20.167 21.998 25.5 39.9971v15.999
c-1.33301 21.999 -7.66602 38.665 -18.999 49.998s-24 16.999 -38 16.999l-1 1c-14 0 -26.667 -5.33301 -38 -15.999c-12.667 -9.99902 -20.334 -25.665 -23.001 -46.9971v-15.999z" />
    <glyph glyph-name="cent" unicode="&#xa2;" horiz-adv-x="814" 
d="M371 860c14 -5.33301 27.666 -11.334 40.999 -18.001c34 -17.333 60.667 -39.333 80 -66l22.5 -30c7.66699 -10 15.167 -20.333 22.5 -31c4 -4 6 -7.66699 6 -11c2 -2.66699 4 -5 6 -7s3.66699 -4.66699 5 -8c7.33301 -26 4.66602 -47.167 -8.00098 -63.5
s-30.334 -23 -53.001 -20s-38.667 10.5 -48 22.5s-13.333 24.667 -12 38c-16.667 28 -38 52.333 -64 73c-2 1.33301 -4 3 -6 5l-6 -105c-5.33301 -98 -9.33301 -196 -12 -294c-2 -86 -2 -171.667 0 -257c14 2 27 4.33301 39 7c56.667 11.333 112.334 25.166 167.001 41.499
s109.667 31.166 165 44.499c18.667 0.666992 34.167 -3 46.5 -11s20.5 -18 24.5 -30c1.33301 -4.66699 2 -9.66699 2 -15c0 -7.33301 -1.66699 -15 -5 -23c-6 -14 -17 -25.667 -33 -35c-38 -6.66699 -81.667 -15.334 -131 -26.001s-100 -20 -152 -28
c-40.667 -6.66699 -80.667 -11.334 -120 -14.001c0 -21.333 0.333008 -42.666 1 -63.999c0.666992 -39.333 2.5 -78.666 5.5 -117.999s7.83301 -78.166 14.5 -116.499s16.667 -75.166 30 -110.499c6 -20.667 5.33301 -38.334 -2 -53.001s-17.333 -24.334 -30 -29.001
c-6.66699 -2.66699 -13.334 -4 -20.001 -4c-7.33301 0 -15 1.66699 -23 5c-15.333 5.33301 -27.666 18 -36.999 38c-7.33301 28 -13 50.667 -17 68s-6.66699 34.333 -8 51s-2 35.667 -2 57v86c0 36 0.333008 68.5 1 97.5s1.66699 56.167 3 81.5v10
c-28.667 1.33301 -55 5.33301 -79 12c-36 10.667 -65.167 26.667 -87.5 48s-40 46 -53 74s-22.167 58.333 -27.5 91s-9 65.334 -11 98.001c-1.33301 18.667 -2.5 40.334 -3.5 65.001s-1.5 50.667 -1.5 78c-0.666992 5.33301 -1 10.666 -1 15.999
c0 22.667 0.666992 45.334 2 68.001c1.33301 28 4 55.167 8 81.5s9.83301 50.833 17.5 73.5s17.834 41.667 30.501 57c7.33301 9.33301 14.833 18.333 22.5 27l23.5 26c24 26 54 44 90 54c28.667 7.33301 58.334 10.333 89.001 9
c-1.33301 115.333 -3.33301 230.666 -6 345.999c4 18.667 11.333 32.834 22 42.501s22.334 14.834 35.001 15.501h1c12.667 0 24.667 -4.33301 36 -13s19.666 -22 24.999 -40c-6 -98 -12.667 -196 -20 -294c-2 -24.667 -3.66699 -49 -5 -73zM282.999 779.999
c-28 6 -56 3.99902 -84 -6.00098c-29.333 -10 -55 -31.333 -77 -64c-10.667 -15.333 -19 -31.5 -25 -48.5s-10.667 -34.5 -14 -52.5s-6.16602 -36 -8.49902 -54s-4.83301 -35.667 -7.5 -53v1c-1.33301 -23.333 -2.5 -49 -3.5 -77s-0.833008 -56.333 0.5 -85
s4.66602 -57 9.99902 -85s13.5 -53.5 24.5 -76.5s25.333 -42.667 43 -59s39.834 -27.5 66.501 -33.5c13.333 -3.33301 27.666 -5 42.999 -5c6 -0.666992 11.667 -1 17 -1c1.33301 18 2.33301 36.667 3 56c1.33301 26 2.5 53.833 3.5 83.5l3.5 100.5
c4.66699 150.667 6.66699 301 6 451c-0.666992 2.66699 -1 5.33398 -1 8.00098z" />
    <glyph glyph-name="sterling" unicode="&#xa3;" horiz-adv-x="852" 
d="M757 739c18 -5.33301 31.3301 -13.832 39.9971 -25.499s12.834 -23.834 12.501 -36.501s-5.33301 -24.334 -15 -35.001s-23.834 -18 -42.501 -22c-40 3.33301 -80.333 6.33301 -121 9s-81.667 3.66699 -123 3c-1.33301 -21.333 -3.66602 -42.666 -6.99902 -63.999
s-8 -41.666 -14 -60.999c-12.667 -41.333 -26.834 -81.333 -42.501 -120s-33.5 -76.667 -53.5 -114c52.667 -20 104.834 -41.167 156.501 -63.5s104.5 -42.166 158.5 -59.499c15.333 -11.333 25.333 -23.833 30 -37.5s4.66699 -26.5 0 -38.5s-13.334 -21.5 -26.001 -28.5
s-28.334 -9.5 -47.001 -7.5c-48 19.333 -95 40.5 -141 63.5s-92.667 45.167 -140 66.5l-21 10.5l-22 10.5c-17.333 -24.667 -35.833 -48.334 -55.5 -71.001s-41.167 -44.334 -64.5 -65.001c-8.66699 -8 -18.5 -13.667 -29.5 -17s-22.167 -7.66602 -33.5 -12.999
c-6 -1.33301 -11 -2 -15 -2c-1.33301 0 -2.33301 0.333008 -3 1c-4.66699 0 -10.667 1.66699 -18 5c-5.33301 3.33301 -10.333 6.66602 -15 9.99902s-9.66699 6.66602 -15 9.99902c-5.33301 5.33301 -9 10.333 -11 15s-3.66699 10.667 -5 18
c1.33301 14 1.66602 28 0.999023 42s1.33301 27.667 6 41c4 11.333 7.5 23 10.5 35s6.16699 24 9.5 36s7.5 23.333 12.5 34s11.5 20.667 19.5 30c12 13.333 26.5 21.5 43.5 24.5s34.833 3.16699 53.5 0.5s36.834 -7 54.501 -13l47.5 -16
c16.667 28.667 30.834 57.167 42.501 85.5s21.334 56.166 29.001 83.499s13.667 54.833 18 82.5s7.83301 55.5 10.5 83.5c-4.66699 -0.666992 -9.16699 -1.16699 -13.5 -1.5s-8.5 -0.833008 -12.5 -1.5c-58 -7.33301 -115.5 -18.5 -172.5 -33.5
s-113.833 -29.167 -170.5 -42.5c-18.667 2.66699 -33.334 9 -44.001 19s-16.667 21.333 -18 34c-0.666992 2 -1 4 -1 6c0 10 3.33301 20.333 10 31c7.33301 12 20 21.333 38 28c58.667 2 117.167 3.5 175.5 4.5s116.5 5.16699 174.5 12.5
c6.66699 0.666992 13 1.33398 19 2.00098s12.333 1.33398 19 2.00098c2 36 3.5 72.5 4.5 109.5s3.16699 75.833 6.5 116.5c1.33301 13.333 2.66602 31.5 3.99902 54.5s3.66602 48 6.99902 75s7.83301 54.5 13.5 82.5s13.334 54 23.001 78s21.667 44.333 36 61
s31.5 27.334 51.5 32.001c13.333 3.33301 25.333 5 36 5c10 0 19 -1.33301 27 -4c16.667 -5.33301 31.834 -12.833 45.501 -22.5s26.834 -19.5 39.501 -29.5s27.334 -16.667 44.001 -20c20.667 -6 35.334 -16 44.001 -30c6 -10 9 -20.333 9 -31
c0 -3.33301 -0.333008 -6.66602 -1 -9.99902c-3.33301 -14 -11.5 -25.833 -24.5 -35.5s-30.167 -13.167 -51.5 -10.5c-19.333 4.66699 -36.333 12.167 -51 22.5s-29.667 21.5 -45 33.5l-16 12.5c-7.33301 5.66699 -13.666 9.5 -18.999 11.5
c-1.33301 0 -2.5 0.166992 -3.5 0.5s-2.16699 0.5 -3.5 0.5c-12.667 -6.66699 -21.167 -15.667 -25.5 -27s-8.5 -24 -12.5 -38c-16.667 -56.667 -28.667 -113.834 -36 -171.501s-14 -115.834 -20 -174.501c-1.33301 -12.667 -2.33301 -25.667 -3 -39l-2 -40l121.5 20
c40.333 6.66699 81.166 12.667 122.499 18zM150.997 101.001c26.667 11.333 50.6699 27.5 72.0029 48.5s40.666 43.167 57.999 66.5c-14.667 6 -29 10.833 -43 14.5s-27.667 5.5 -41 5.5c-6.66699 -16 -13.834 -31.833 -21.501 -47.5s-14.167 -32.167 -19.5 -49.5
c-1.33301 -6.66699 -2.33301 -13 -3 -19s-1.33398 -12.333 -2.00098 -19zM622 1192c1.33301 0 1.33203 0.166992 -0.000976562 0.5s-2.66602 0.5 -3.99902 0.5c0.666992 -0.666992 2 -1 4 -1z" />
    <glyph glyph-name="yen" unicode="&#xa5;" horiz-adv-x="1073" 
d="M423 501l-4.00098 4.00684c-37.333 52 -72.166 105.667 -104.499 161s-66.833 109.333 -103.5 162c-18 26 -36.833 51.333 -56.5 76s-38.667 49.667 -57 75s-35.833 51.333 -52.5 78s-31.334 55 -44.001 85c-0.666992 4 -1 8 -1 12c0 13.333 3 25 9 35
c6.66699 12.667 16 21.334 28 26.001s24.833 4.66699 38.5 0s26.167 -14.667 37.5 -30c7.33301 -36.667 18 -72.5 32 -107.5s30.167 -69 48.5 -102s38.166 -65 59.499 -96l66 -91.5l2 -1l93 -104.5c30 -34.333 62 -67.833 96 -100.5
c0 -0.666992 0.333008 -1.33398 1 -2.00098l28 46l34 56c58 97.333 118.667 191.666 182 282.999l190 277c14.667 12 29.334 18.333 44.001 19h4c12.667 0 23.667 -3 33 -9c10 -7.33301 17 -18 21 -32c0.666992 -4.66699 1 -10 1 -16c0 -10 -2 -20.667 -6 -32l-159.5 -184
c-54.333 -61.333 -106 -124.666 -155 -189.999s-93.167 -133.333 -132.5 -204c-16 -29.333 -30.667 -59 -44 -89l167 16c68 6 136.333 11.667 205 17c18 -5.33301 31.333 -13.833 40 -25.5s12.834 -23.834 12.501 -36.501s-5.33301 -24.334 -15 -35.001
s-23.834 -18 -42.501 -22c-68 6 -136 12.333 -204 19c-62 5.33301 -124.667 7 -188 5c-8.66699 -24.667 -16.667 -50 -24 -76c-2 -6.66699 -3.66699 -13.334 -5 -20.001c53.333 -2 104.666 -0.333008 153.999 5c61.333 6 113.166 12.167 155.499 18.5
s85.5 13.833 129.5 22.5c22 1.33301 39.167 -3.33398 51.5 -14.001s19.333 -23 21 -37s-2.16602 -27.667 -11.499 -41s-24.666 -22 -45.999 -26c-58.667 1.33301 -117.667 3.66602 -177 6.99902s-118.333 4 -177 2c-38.667 -1.33301 -77.667 -4 -117 -8
c-4.66699 -24.667 -7.83398 -48.167 -9.50098 -70.5s-2.66699 -46.166 -3 -71.499s-1.16602 -57 -2.49902 -95c-6.66699 -18 -16 -30.667 -28 -38c-10.667 -6 -21 -9 -31 -9h-6c-12.667 1.33301 -24 7.33301 -34 18s-16.333 25.334 -19 44.001
c4.66699 31.333 8 62.5 10 93.5s7.66699 61.5 17 91.5l8 26c-46 -6 -91.667 -11.333 -137 -16c-21.333 2.66699 -37.166 10.167 -47.499 22.5s-15.333 25.5 -15 39.5s6.16602 26.667 17.499 38s28 17.666 50 18.999c53.333 -5.33301 106.333 -10.333 159 -15l14 41l17 43
c-42 -4.66699 -83.667 -11.667 -125 -21c-63.333 -14 -125.666 -32 -186.999 -54c-21.333 -4 -39 -1.83301 -53 6.5s-23 19.166 -27 32.499s-2.5 27.166 4.5 41.499s20.5 25.5 40.5 33.5c49.333 8.66699 97.833 14.667 145.5 18s96.167 5.66602 145.5 6.99902
c13.333 0.666992 26.333 0.666992 39 0z" />
    <glyph glyph-name="brokenbar" unicode="&#xa6;" horiz-adv-x="167" 
d="M23 233c4 18.667 11.3291 32.835 21.9961 42.502s22.334 14.667 35.001 15s24.834 -3.83398 36.501 -12.501s20.167 -22 25.5 -40c-4 -28 -8 -54 -12 -78s-8.66699 -50 -14 -78c-0.666992 -4 -2.5 -13 -5.5 -27s-6 -28.833 -9 -44.5l-8.5 -44.5
c-2.66699 -14 -4.33398 -23 -5.00098 -27c-1.33301 -10 -1.83301 -20 -1.5 -30s0.833008 -20.333 1.5 -31v10c0 2.66699 0.333008 2.66699 1 0c2 -13.333 3.16699 -27 3.5 -41s1.5 -27.667 3.5 -41c2.66699 -15.333 5.33398 -28.5 8.00098 -39.5s5.5 -21.5 8.5 -31.5
s6.5 -20.167 10.5 -30.5l14 -37.5c-0.666992 -18.667 -5.66699 -33.667 -15 -45s-20 -18.333 -32 -21c-4 -0.666992 -7.66699 -1 -11 -1c-9.33301 0 -18.333 2.33301 -27 7c-13.333 6.66699 -24 18.667 -32 36c-1.33301 14.667 -3.16602 29.167 -5.49902 43.5
s-3.5 29.166 -3.5 44.499c0 36.667 2.33301 72.667 7 108s8.33398 71 11.001 107c4 48 5 96 3 144s-5 95.667 -9 143zM9.99609 1222c4 18.667 11.3291 32.834 21.9961 42.501s22.334 14.834 35.001 15.501h1c12.667 0 24.667 -4.33301 36 -13s19.666 -22 24.999 -40
c-6.66699 -40 -14.667 -81.5 -24 -124.5s-15.333 -84.5 -18 -124.5c-1.33301 -17.333 -0.833008 -34.5 1.5 -51.5s5.16602 -33.833 8.49902 -50.5s6.5 -33.334 9.5 -50.001s4.83301 -33.334 5.5 -50.001c10.667 -12.667 14.334 -28 11.001 -46s-15.333 -33 -36 -45
c-1.33301 0 -2.16602 -0.166992 -2.49902 -0.5s-1.16602 -0.5 -2.49902 -0.5c-19.333 -4 -35.166 -3 -47.499 3s-22.833 17.667 -31.5 35c-2 10 -3 21.333 -3 34c0 7.33301 0.333008 15.333 1 24c2 22.667 4.66699 46.167 8 70.5s6.83301 48 10.5 71
s5.83398 42.833 6.50098 59.5c2.66699 40 2 80.333 -2 121s-8.66699 80.667 -14 120z" />
    <glyph glyph-name="section" unicode="&#xa7;" horiz-adv-x="602" 
d="M225 774c8 2.66699 16.002 4.66504 24.002 5.99805l-41 62.5l-39 63.5c-13.333 24 -24.5 49.333 -33.5 76s-17.833 51.167 -26.5 73.5s-14.5 45 -17.5 68s-0.833008 44.167 6.5 63.5c5.33301 13.333 10.333 27 15 41s11.667 26.333 21 37c22 25.333 49 41 81 47
c47.333 2.66699 79.666 2.33398 96.999 -0.999023c33.333 -6.66699 65.166 -17.834 95.499 -33.501s55.5 -32.834 75.5 -51.501c14 -12.667 27.5 -27.667 40.5 -45s23.833 -35.666 32.5 -54.999s13.834 -39.333 15.501 -60s-2.5 -40.667 -12.5 -60
c-12 -14.667 -25 -23.667 -39 -27s-26.667 -2.16602 -38 3.50098s-20.166 15.167 -26.499 28.5s-7.5 29.333 -3.5 48c0 1.33301 0.666992 3.33301 2 6l-2 11.5c-0.666992 3.66699 -1.66699 7.5 -3 11.5c-10.667 16.667 -21.334 32.334 -32.001 47.001s-22.334 28 -35.001 40
s-26.834 22.333 -42.501 31s-33.5 15.667 -53.5 21c-60 -6 -94.5 -16.333 -103.5 -31s-14.167 -32.5 -15.5 -53.5s0.666992 -42.5 6 -64.5c10.667 -47.333 26.834 -90.666 48.501 -129.999s46 -77.166 73 -113.499s55.167 -72.166 84.5 -107.499s57 -72.333 83 -111
l25 -37.5c10 -15 20.167 -31.667 30.5 -50s20.166 -37.5 29.499 -57.5s16.666 -39.833 21.999 -59.5s8 -38.5 8 -56.5c0 -18.667 -4 -35 -12 -49c-7.33301 -12 -15.666 -23 -24.999 -33s-18.333 -20.333 -27 -31c-16.667 -10 -32.167 -14.167 -46.5 -12.5s-26 7 -35 16
s-14.333 20.667 -16 35s2.5 29.833 12.5 46.5c5.33301 5.33301 11 10.333 17 15s10.667 10.334 14 17.001c5.33301 12.667 5.66602 29.167 0.999023 49.5s-11.5 41 -20.5 62s-18.667 40.667 -29 59l-23.5 41.5l-39 63l-41 62c-1.33301 -3.33301 -3 -6.5 -5 -9.5
s-4.33301 -6.16699 -7 -9.5l-21.5 -14c-7 -4.66699 -14.5 -8.66699 -22.5 -12c-10 -4 -20 -7 -30 -9s-20.333 -3.83301 -31 -5.5s-21 -3.66699 -31 -6s-20 -5.5 -30 -9.5c-4.66699 -2 -9.5 -4.83301 -14.5 -8.5s-9.16699 -8.16699 -12.5 -13.5
c-12.667 -22 -17 -39.333 -13 -52s6.66699 -21.5 8 -26.5s3 -10.333 5 -16s5 -12 9 -19s9.33301 -16.833 16 -29.5c5.33301 -10 11.166 -19.5 17.499 -28.5l19.5 -26.5c7.33301 -9.33301 15.833 -19.166 25.5 -29.499l30.5 -32l31 -32l27 -27.5l91 -92
c30.667 -30.667 56.667 -65 78 -103c13.333 -22 24.166 -45.667 32.499 -71s14.166 -50.666 17.499 -75.999c2.66699 -24.667 3 -53.5 1 -86.5s-7.83301 -65.5 -17.5 -97.5s-23.167 -61.333 -40.5 -88s-39.333 -45.667 -66 -57
c-11.333 -4.66699 -22.666 -9.66699 -33.999 -15s-23.333 -8 -36 -8l-31.5 2c-10.333 0.666992 -21.166 1.66699 -32.499 3c-21.333 2.66699 -37.166 10.167 -47.499 22.5s-15.333 25.5 -15 39.5s6.16602 26.667 17.499 38s28 17.666 50 18.999
c9.33301 -1.33301 17.5 -2.83301 24.5 -4.5s13.667 -2.83398 20 -3.50098s12.833 -0.5 19.5 0.5s14 3.5 22 7.5c11.333 5.33301 21.333 13.666 30 24.999s15.667 22 21 32c23.333 44.667 35 92 35 142s-11 97.333 -33 142c-15.333 32 -34.166 60.833 -56.499 86.5
s-46 50.167 -71 73.5l-76.5 69c-26 22.667 -50.333 46.667 -73 72c-13.333 14.667 -23.666 26.834 -30.999 36.501s-13.666 19 -18.999 28s-10.833 18.833 -16.5 29.5l-21.5 42c-2 3.33301 -5.66699 13.666 -11 30.999s-8 39.666 -8 66.999
c3.33301 19.333 8 36.666 14 51.999s15.333 30.333 28 45c11.333 14 24.833 24.667 40.5 32s31.667 13.666 48 18.999l49.5 16.5c16.667 5.66699 31.667 13.5 45 23.5z" />
    <glyph glyph-name="dieresis" unicode="&#xa8;" horiz-adv-x="474" 
d="M354 1197c12.667 -3.33301 22.167 -8.00195 28.5 -14.002s11.5 -14.333 15.5 -25c10.667 -4.66699 20.5 -11.834 29.5 -21.501s15.167 -20.167 18.5 -31.5c2 -6 3 -12 3 -18c0 -5.33301 -1 -10.666 -3 -15.999c-3.33301 -11.333 -11.666 -21 -24.999 -29h-1
c-5.33301 -10.667 -13.5 -18.667 -24.5 -24s-23.167 -6.66602 -36.5 -3.99902c-22 -8 -40.833 -9 -56.5 -3s-26.834 23.667 -33.501 53c-1.33301 7.33301 -1.33301 16.833 0 28.5s2.33301 20.834 3 27.501c2 12.667 5.16699 23.167 9.5 31.5l15.5 28.5
c8 6.66699 15.167 11.167 21.5 13.5s14.833 3.83301 25.5 4.5c1.33301 0 3 -0.166992 5 -0.5s3.66699 -0.5 5 -0.5zM138 1101c0 -0.666992 0.667969 -1.66797 2.00098 -3.00098c3.33301 -7.33301 5 -16 5 -26s-1.66699 -19 -5 -27
c-6.66699 -18.667 -17.334 -30.667 -32.001 -36c-9.33301 -4.66699 -18.333 -7 -27 -7c-11.333 0 -22.333 4 -33 12c-7.33301 2.66699 -14.333 6.66699 -21 12c-9.33301 6 -16.333 16.667 -21 32c-4 12.667 -6 26 -6 40c-0 2.66699 0.333008 5.66699 1 9
c0.666992 16.667 4.33398 31.834 11.001 45.501s16.667 22.167 30 25.5c16 3.33301 28.667 0.833008 38 -7.5s28.666 -31.5 57.999 -69.5z" />
    <glyph glyph-name="copyright" unicode="&#xa9;" horiz-adv-x="1189" 
d="M623 1263c17.333 -6 33.835 -13.332 49.502 -21.999l47.5 -26c-1.33301 12 0.666992 23 6 33s12.666 17.667 21.999 23s20.5 7.66602 33.5 6.99902s26.167 -6 39.5 -16c28 -26.667 57 -58 87 -94s58.833 -75 86.5 -117s53.334 -85.833 77.001 -131.5
s43.167 -91.5 58.5 -137.5s25.666 -91.667 30.999 -137c2 -17.333 3 -34.333 3 -51c0 -26.667 -2.66699 -52.334 -8 -77.001c-12 -56 -33.167 -107.333 -63.5 -154s-66.833 -88 -109.5 -124s-90.167 -66.5 -142.5 -91.5s-106.333 -43.667 -162 -56
s-111.834 -18.5 -168.501 -18.5s-110.334 7.33301 -161.001 22c-37.333 10.667 -72.833 25.5 -106.5 44.5s-67.834 37.167 -102.501 54.5c-33.333 16.667 -60 40.167 -80 70.5s-34.667 64.666 -44 102.999s-14.333 78.833 -15 121.5c-0.666992 8 -1 16 -1 24
c0 34.667 2 68.667 6 102c4 40.667 9.5 79.167 16.5 115.5s14.167 67.5 21.5 93.5c8 28.667 17.667 60.834 29 96.501s24.833 70.834 40.5 105.501s33.834 66.834 54.501 96.501s44.334 53.167 71.001 70.5l39.5 25l39.5 24c18 10.667 40.5 19 67.5 25s55.167 10 84.5 12h33
c17.333 0 34.333 -0.666992 51 -2c26.667 -2.66699 49.667 -7.33398 69 -14.001zM1068 533.001c4.66699 46 1.33789 93 -9.99512 141s-27.833 95.5 -49.5 142.5s-47.334 92.5 -77.001 136.5s-60.834 84.667 -93.501 122c-14.667 -8.66699 -31.334 -11.667 -50.001 -9
c-19.333 2.66699 -37.5 8.16699 -54.5 16.5s-33.667 17.333 -50 27l-49 28.5c-16.333 9.33301 -33.5 16.666 -51.5 21.999c-10 3.33301 -21.333 5.83301 -34 7.5s-25.334 2.66699 -38.001 3s-24.667 0.5 -36 0.5s-21 -0.333008 -29 -1c-30 -2 -58.333 -8 -85 -18
c-23.333 -8.66699 -45.333 -21.334 -66 -38.001c-24 -18.667 -45 -40.167 -63 -64.5s-33.667 -50.166 -47 -77.499s-25 -55.666 -35 -84.999s-19.333 -58 -28 -86c-14 -45.333 -25.5 -91 -34.5 -137s-14 -90.667 -15 -134s3 -84.666 12 -123.999s24.833 -75.333 47.5 -108
s53 -61.334 91 -86.001s85.333 -43.667 142 -57c42 -10 87.667 -14.5 137 -13.5s99.166 7.16699 149.499 18.5s99.333 27.833 147 49.5s90.667 48 129 79s70 67 95 108s40.167 86.5 45.5 136.5zM719.006 880.001c6 -20 5.67188 -37.1641 -0.995117 -51.4971
s-16.334 -24.333 -29.001 -30s-26.334 -6.33398 -41.001 -2.00098s-27 14.833 -37 31.5c-2.66699 1.33301 -5.5 2.16602 -8.5 2.49902s-6.16699 0.833008 -9.5 1.5c-16 2 -32.167 2.66699 -48.5 2s-32.833 -1.66699 -49.5 -3c-29.333 -2.66699 -54.166 -7 -74.499 -13
s-38.333 -14.333 -54 -25s-29.834 -24 -42.501 -40s-26.334 -35.333 -41.001 -58c3.33301 -10.667 5.5 -21.5 6.5 -32.5s4.5 -20.833 10.5 -29.5c22 -30 52 -55.5 90 -76.5s79 -37.5 123 -49.5s88.333 -19.5 133 -22.5s84 -1.5 118 4.5
c21.333 3.33301 42.166 9.16602 62.499 17.499s40.833 15.833 61.5 22.5c18.667 0.666992 34.167 -3 46.5 -11s20.333 -18 24 -30s2.66699 -24.833 -3 -38.5s-16.5 -25.167 -32.5 -34.5c-28.667 -6 -51.667 -11 -69 -15s-31.666 -7.16699 -42.999 -9.5
s-21.333 -3.66602 -30 -3.99902s-19.167 -0.166016 -31.5 0.500977s-27.666 1.83398 -45.999 3.50098l-73.5 6.5c-29.333 3.33301 -58.333 9.16602 -87 17.499s-56 19.166 -82 32.499l-58.5 30c-19.667 10 -38.834 20.667 -57.501 32s-36.334 24 -53.001 38
s-31.667 30.333 -45 49c-20.667 29.333 -31.834 57.666 -33.501 84.999s3.33301 52.833 15 76.5s28.667 45.667 51 66s47 38.166 74 53.499s54.833 27.833 83.5 37.5s55.667 16.5 81 20.5c18.667 2.66699 37.667 4.83398 57 6.50098s38 1 56 -2s34.667 -9 50 -18
s28 -22.833 38 -41.5z" />
    <glyph glyph-name="ordfeminine" unicode="&#xaa;" horiz-adv-x="442" 
d="M320.991 1208.56c7.36426 -10.3936 10.9355 -20.4512 10.7188 -30.167s-2.92383 -17.8506 -8.12207 -24.4033c-5.19824 -6.55176 -12.4541 -10.7314 -21.7676 -12.5391s-19.6016 0 -30.8643 5.42285c-2.16602 1.80762 -4.33203 3.72852 -6.49707 5.76172
c-2.16602 2.03418 -4.54883 3.72852 -7.14844 5.08398c-5.19824 3.16309 -12.0205 3.50195 -20.4678 1.0166s-17.0029 -6.32715 -25.666 -11.5244c-8.66406 -5.19629 -16.8945 -10.8447 -24.6914 -16.9453c-7.79785 -6.10059 -13.4297 -10.7324 -16.8955 -13.8955
c-3.03223 -2.71191 -5.63184 -5.875 -7.79785 -9.49023c-2.16504 -3.61523 -4.98047 -6.10059 -8.44629 -7.45605h-0.649414c-26.8574 -34.3447 -49.708 -71.8525 -68.5518 -112.523s-30.4316 -83.376 -34.7637 -128.115l-5.19727 -51.5166
c-1.7334 -17.1729 -2.16699 -34.3457 -1.30078 -51.5186c0.432617 -4.06738 2.38184 -7.45703 5.84766 -10.1689c3.46582 -2.71094 6.28125 -5.87402 8.44727 -9.49023c4.76465 2.25977 9.74609 3.9541 14.9443 5.08398s9.74707 3.50293 13.6465 7.11816
c27.29 23.0469 53.0645 50.5 77.3232 82.3594s46.7842 65.6396 67.5771 101.34s39.6367 72.1914 56.5312 109.474c16.8936 37.2822 31.6221 72.8691 44.1846 106.762c5.63184 9.94238 12.3467 16.834 20.1445 20.6748s15.3789 5.19629 22.7432 4.06641
s13.8623 -4.40625 19.4941 -9.8291s9.09766 -12.4277 10.3975 -21.0146c1.7334 -2.25879 3.1416 -4.74414 4.22461 -7.45605s2.05762 -5.64941 2.92383 -8.8125c-1.2998 -10.3936 -2.38281 -20.6738 -3.24902 -30.8418s-2.38281 -20.4492 -4.54883 -30.8428
c-4.76465 -24.8545 -9.85449 -49.709 -15.2695 -74.5635s-9.63867 -49.709 -12.6709 -74.5635s-3.79004 -49.709 -2.27344 -74.5635s7.25586 -49.709 17.2188 -74.5635c3.46582 -7.68262 7.25586 -15.4775 11.3711 -23.3857l12.0215 -23.3867
c1.73242 -6.32617 2.59863 -12.2012 2.59863 -17.624c0 -6.77832 -1.2998 -12.8789 -3.89844 -18.3018c-4.76465 -9.94238 -11.2627 -16.4951 -19.4932 -19.6582c-4.33203 -1.80762 -8.66406 -2.71094 -12.9961 -2.71094c-4.76465 0 -9.74609 1.12988 -14.9443 3.38867
c-9.96387 3.61523 -17.9775 12.2012 -24.042 25.7588c-5.63184 23.499 -9.42188 43.835 -11.3711 61.0078s-2.92383 33.7803 -2.92383 49.8223c0 16.043 0.757812 32.6504 2.27344 49.8232c1.5166 17.1719 3.1416 37.5078 4.875 61.0068
c0.866211 13.5576 1.62402 27.2275 2.27344 41.0098c0.649414 13.7832 0.974609 27.6797 0.974609 41.6885c-22.959 -37.96 -47.4346 -74.4512 -73.4258 -109.474l-81.2227 -105.407c-10.3965 -13.5566 -21.6592 -27.2266 -33.7881 -41.0098
c-12.1299 -13.7832 -25.9922 -23.8379 -41.5869 -30.165c-8.23047 -3.61523 -16.3525 -6.77832 -24.3672 -9.48926l-25.0166 -8.8125c-5.19824 -0.90332 -9.53027 -0.790039 -12.9961 0.339844s-7.14746 3.50195 -11.0459 7.11719
c-4.76562 7.68262 -10.1807 15.1396 -16.2451 22.3701s-10.3965 15.3643 -12.9951 24.4023c-2.59961 9.94238 -4.11621 20.1104 -4.54883 30.5039v12.2012c0 6.32715 0.216797 12.6533 0.649414 18.9795c0.433594 10.3936 1.19141 20.6748 2.27441 30.8428
s1.84082 20.4492 2.27344 30.8428c0.866211 23.9502 4.22363 48.5791 10.0713 73.8857c5.84863 25.3066 13.5381 50.1611 23.0684 74.5645s20.4688 47.9023 32.8154 70.4971c12.3457 22.5947 25.666 43.1562 39.9609 61.6846
c9.09668 12.2021 20.6846 24.8555 34.7637 37.9609c14.0781 13.1045 29.3477 24.1758 45.8096 33.2139c16.4609 9.03809 33.3555 15.1387 50.6826 18.3018c4.76465 0.452148 9.31348 0.677734 13.6455 0.677734c12.5625 0 24.6914 -2.9375 36.3877 -8.81152
c5.19824 -2.71191 10.0713 -5.98828 14.6201 -9.8291c4.54785 -3.84082 9.2041 -7.56934 13.9688 -11.1846z" />
    </font>
</defs>
</svg>
